<?xml version="1.0" standalone="no"?>
<!DOCTYPE svg PUBLIC "-//W3C//DTD SVG 1.1//EN" "http://www.w3.org/Graphics/SVG/1.1/DTD/svg11.dtd" >
<svg xmlns="http://www.w3.org/2000/svg" version="1.1">
	<metadata></metadata>
	<defs>
		<font id="museo_sans300" horiz-adv-x="504">
			<font-face units-per-em="1000" ascent="771" descent="-229" />
			<missing-glyph horiz-adv-x="269" />
			<glyph unicode="&#xfb01;" horiz-adv-x="552" d="M470 0h-68v446h-229v-446h-68v446h-63v57h63v18q0 117 67 156q52 31 107 31l31 -2v-61q-14 2 -24 2q-18 0 -34.5 -4.5t-36 -16t-31 -39t-11.5 -66.5v-18h297v-503zM471 618h-71v85h71v-85z" />
			<glyph unicode="&#xfb02;" horiz-adv-x="567" d="M173 0h-68v440h-63v57h63v24q0 117 67 156q52 31 107 31l31 -2v-61q-14 2 -24 2q-18 0 -34.5 -4.5t-36 -16t-31 -39t-11.5 -66.5v-24h129v-57h-129v-440zM397 119v584h68v-569q0 -76 56 -76l17 1v-61q-16 -2 -25 -2q-116 0 -116 123z" />
			<glyph horiz-adv-x="0" />
			<glyph horiz-adv-x="333" />
			<glyph unicode=" " horiz-adv-x="269" />
			<glyph unicode="&#x09;" horiz-adv-x="269" />
			<glyph unicode="&#xa0;" horiz-adv-x="269" />
			<glyph unicode="!" horiz-adv-x="307" d="M185 184h-64l-3 519h70zM193 0h-77v77h77v-77z" />
			<glyph unicode="&#x22;" horiz-adv-x="318" d="M249 544h-59v169h59v-169zM128 544h-59v169h59v-169z" />
			<glyph unicode="#" horiz-adv-x="724" d="M216 0h-61l34 195h-142l10 56h141l35 196h-141l9 56h142l35 200h61l-35 -200h173l35 200h61l-35 -200h140l-10 -56h-140l-34 -196h139l-9 -56h-140l-34 -195h-61l34 195h-173zM294 447l-34 -196h172l35 196h-173z" />
			<glyph unicode="$" horiz-adv-x="557" d="M82 58l-21 20l42 53q15 -15 32 -27q68 -47 152 -50q61 0 100.5 34t39.5 88q0 83 -125 136q-107 46 -141 69q-89 59 -88 145q0 70 51 123t133 63v95h56v-93q45 -3 87.5 -19t61.5 -33l18 -15l-34 -58q-6 7 -20 17q-11 8 -54 26q-42 17 -80 17q-66 0 -107 -36t-41 -85 q0 -37 26 -66q12 -14 31 -26.5t33.5 -19.5t43 -19.5t42.5 -19.5q48 -22 85 -43q41 -23 66.5 -64t25.5 -92q0 -74 -50 -127q-50 -54 -134 -61v-93h-56v93q-58 5 -105 26q-49 22 -70 42z" />
			<glyph unicode="%" horiz-adv-x="730" d="M196 437q-59 0 -99 40q-41 41 -41 99q0 57 41 98t99 41t99 -41q42 -40 42 -98t-41 -99q-40 -40 -100 -40zM134 0h-72l536 703h71zM278 576q0 34 -24 58.5t-58 24.5t-57.5 -24.5t-23.5 -58.5q0 -35 23.5 -59t57.5 -24t58 24t24 59zM394 126q0 58 41 99t99 41t99 -41 q42 -41 42 -99t-42 -98q-40 -40 -99 -40t-99 40q-41 41 -41 98zM454 127q0 -35 23 -59t57 -24t58 24t24 59q0 34 -24 58.5t-58 24.5q-33 0 -56.5 -24.5t-23.5 -58.5z" />
			<glyph unicode="&#x26;" horiz-adv-x="674" d="M60 194q0 64 34.5 115.5t93.5 69.5v2q-9 2 -34 19q-64 46 -64 137q0 81 57.5 129.5t153.5 48.5q30 0 67 -7l13 -3l-20 -58q-31 7 -58 7q-62 0 -101.5 -33t-39.5 -88q0 -21 5.5 -40t20 -40.5t47 -34t78.5 -12.5h148v99h69v-99h95v-62h-95v-103q0 -122 -62 -187.5 t-171 -65.5q-106 0 -171 58q-66 59 -66 148zM131 198q0 -62 45 -104q46 -41 121 -41q164 0 164 190v101h-148q-88 0 -135 -38.5t-47 -107.5z" />
			<glyph unicode="'" horiz-adv-x="197" d="M128 544h-59v169h59v-169z" />
			<glyph unicode="(" horiz-adv-x="290" d="M256 -95h-63q-113 194 -113 432q0 208 113 393h63q-113 -191 -113 -393q0 -229 113 -432z" />
			<glyph unicode=")" horiz-adv-x="289" d="M97 -95h-63q113 202 113 432q0 202 -113 393h63q113 -185 113 -393q0 -238 -113 -432z" />
			<glyph unicode="*" horiz-adv-x="471" d="M234 463l-85 -126l-53 38l94 120v2l-147 42l20 63l144 -53l-6 154h68l-7 -154l146 52l20 -61l-148 -43v-2l94 -120l-52 -39l-86 127h-2z" />
			<glyph unicode="+" horiz-adv-x="688" d="M314 255h-231v58h231v255h61v-255h230v-58h-230v-255h-61v255z" />
			<glyph unicode="," horiz-adv-x="244" d="M94 -97h-58l57 179h75z" />
			<glyph unicode="-" horiz-adv-x="492" d="M388 253h-284v62h284v-62z" />
			<glyph unicode="." horiz-adv-x="247" d="M163 0h-79v80h79v-80z" />
			<glyph unicode="/" horiz-adv-x="392" d="M105 -42h-64l254 784h63z" />
			<glyph unicode="0" horiz-adv-x="625" d="M313 -12q-243 0 -243 364q0 107 21 185q23 81 80 129.5t142 48.5q242 0 242 -363q0 -364 -242 -364zM313 53q170 0 170 299q0 298 -170 298q-171 0 -171 -298q0 -299 171 -299z" />
			<glyph unicode="1" horiz-adv-x="466" d="M437 0h-381v62h158v516l1 39h-2q-8 -17 -35 -42l-75 -75l-44 45l159 158h64v-641h155v-62z" />
			<glyph unicode="2" horiz-adv-x="565" d="M503 0h-439q-4 19 -4 45q0 50 20 93.5t51.5 75t70 60t77 54.5t70 53t51.5 61t20 72q0 60 -40.5 97.5t-105.5 37.5q-53 0 -93.5 -29t-57.5 -57l-6 -10l-52 35q12 20 32 44q66 80 181 83q97 0 156 -56q58 -55 58 -141q0 -48 -19.5 -89.5t-51 -72t-69.5 -58t-76 -53 t-69.5 -52t-51 -60t-19.5 -71.5h367v-62z" />
			<glyph unicode="3" horiz-adv-x="562" d="M54 74l-9 10l42 53q8 -9 23 -23q17 -15 62 -37q48 -23 95 -23q66 0 113 43q48 43 48 109q0 71 -52 110q-50 40 -125 40h-48l-17 41l176 206l37 39v2q-19 -3 -57 -3h-264v62h411v-46l-210 -242q79 -5 142 -48q78 -51 78 -159q0 -92 -66 -156q-65 -64 -165 -64 q-71 0 -127.5 28t-86.5 58z" />
			<glyph unicode="4" horiz-adv-x="597" d="M386 195h-352v45l346 463h75v-447h100v-61h-100v-195h-69v195zM118 258v-2h268v294l3 66h-2q-17 -30 -35 -53z" />
			<glyph unicode="5" horiz-adv-x="558" d="M62 78l-8 10l44 48q12 -16 25 -29q55 -53 134 -53q74 0 124 47q51 47 51 118t-51 118q-52 47 -127 47q-65 0 -112 -28l-16 -10l-44 16l38 341h340v-62h-280l-20 -180l-7 -40h2q43 27 107 27q106 0 173 -67q69 -66 69 -162t-71 -164q-70 -67 -173 -67q-73 1 -123.5 30 t-74.5 60z" />
			<glyph unicode="6" horiz-adv-x="595" d="M319 -12q-113 0 -184 93q-70 92 -70 237q0 143 72 264q37 61 99 97t138 36q65 0 114 -22l15 -7l-26 -61q-43 25 -102 25q-71 0 -123 -43q-98 -81 -111 -239h2q25 37 74 59.5t104 22.5q96 0 157 -64q62 -64 62 -163q0 -107 -63 -171t-158 -64zM318 53q69 0 110 47t41 122 t-43.5 120.5t-115.5 45.5q-67 0 -119 -38q-51 -38 -51 -82q0 -76 52 -146q52 -69 126 -69z" />
			<glyph unicode="7" horiz-adv-x="520" d="M169 0h-72l284 576q10 21 33 57l6 8v2q-24 -2 -53 -2h-329v62h457v-48z" />
			<glyph unicode="8" horiz-adv-x="602" d="M64 202q0 78 52 135q41 44 63 57q-87 57 -87 143q0 74 55 126t157 52q98 0 156.5 -50t58.5 -133q0 -46 -22 -93q-28 -61 -64 -97q102 -58 102 -151q0 -84 -67 -144q-67 -59 -166 -59t-169 58q-69 58 -69 156zM464 192q0 51 -52 86q-28 19 -50 29q-27 15 -64 29 q-49 21 -62 28q-24 -14 -58 -50q-43 -46 -43 -109q0 -67 50 -111q49 -42 117 -42q66 0 113 40q49 40 49 100zM162 536q4 -36 19.5 -58.5t50.5 -42.5q18 -10 42 -22l52 -22l50 -21q7 6 25 28q15 18 31 55q17 39 17 76q0 56 -40.5 89t-104.5 33t-103 -32.5t-39 -82.5z" />
			<glyph unicode="9" horiz-adv-x="594" d="M220 -12q-74 0 -114 22l-15 7l26 61q43 -25 102 -25q103 0 163 83q62 84 72 199h-2q-26 -37 -75 -59.5t-104 -22.5q-96 0 -157 63q-61 64 -61 164q0 106 62 171q63 64 158 64q114 0 184 -93q70 -92 70 -237q0 -142 -73 -264q-36 -61 -98 -97t-138 -36zM284 315 q69 0 119 38q51 37 51 82q0 77 -52 145q-52 70 -126 70q-69 0 -110 -47t-41 -122t43.5 -120.5t115.5 -45.5z" />
			<glyph unicode=":" horiz-adv-x="293" d="M186 423h-79v80h79v-80zM186 0h-79v80h79v-80z" />
			<glyph unicode=";" horiz-adv-x="293" d="M120 -97h-58l49 179h75zM190 423h-79v80h79v-80z" />
			<glyph unicode="&#x3c;" horiz-adv-x="567" d="M502 57l-452 202v50l452 202v-67l-367 -159v-2l367 -159v-67z" />
			<glyph unicode="=" horiz-adv-x="684" d="M575 342h-466v58h466v-58zM575 168h-466v58h466v-58z" />
			<glyph unicode="&#x3e;" horiz-adv-x="567" d="M517 259l-452 -202v67l367 159v2l-367 159v67l452 -202v-50z" />
			<glyph unicode="?" horiz-adv-x="481" d="M222 184h-68v45q0 81 61 140q6 6 30 27.5t33 31.5t24 29.5t21 38.5t6 40q0 49 -37 82t-94 33q-28 0 -59 -10t-47 -22l-15 -11l-37 51q12 10 20 15q11 9 55 26q41 16 86 16q85 0 143 -50q57 -50 57 -127q0 -86 -63 -145q-4 -4 -30 -26.5t-34 -32t-24 -29t-22 -38.5t-6 -41 v-43zM227 0h-77v77h77v-77z" />
			<glyph unicode="@" horiz-adv-x="805" d="M421 609q127 0 185 -54q60 -54 60 -135v-315h71v-56h-269q-84 0 -143 56q-57 57 -57 136t57 135q57 57 143 57h130q-2 52 -46.5 84.5t-125.5 32.5q-122 0 -207 -91q-84 -90 -84 -217q0 -130 84 -218q85 -88 212 -88v-60q-154 0 -261 107q-105 107 -105 259q0 153 104 260 q105 107 252 107zM474 105h124v275h-122q-58 0 -99 -41q-39 -41 -39 -97t39 -97q40 -40 97 -40z" />
			<glyph unicode="A" horiz-adv-x="616" d="M603 0h-73l-81 224h-283l-80 -224h-73l258 703h74zM336 539l-27 91h-2q-15 -57 -27 -91l-94 -255h242z" />
			<glyph unicode="B" horiz-adv-x="626" d="M350 0h-248v703h240q85 0 137.5 -48t52.5 -129q0 -108 -89 -153v-2q54 -15 86 -62.5t32 -111.5q0 -91 -60 -144q-61 -53 -151 -53zM171 641v-243h171q53 0 86 34t33 89t-32 87.5t-88 32.5h-170zM171 338v-276h180q64 0 101 37t37 100t-38.5 101t-100.5 38h-179z" />
			<glyph unicode="C" horiz-adv-x="728" d="M55 356q0 152 101 256q100 103 252 103q92 0 162 -32q56 -26 81 -49l10 -10l-37 -51q-11 11 -38 27q-20 13 -44 24q-64 27 -132 27q-124 0 -203 -85q-80 -85 -80 -209q0 -128 80 -217q81 -88 205 -88q73 0 131.5 28t86.5 56l10 10l40 -49q-20 -21 -45 -38 q-24 -18 -55 -33q-78 -38 -169 -38q-155 0 -255 106q-101 107 -101 262z" />
			<glyph unicode="D" horiz-adv-x="740" d="M329 0h-227v703h227q161 0 256 -94q97 -93 97 -257q0 -166 -96 -259t-257 -93zM171 641v-579h151q133 0 210.5 76.5t77.5 213.5t-77.5 213t-210.5 76h-151z" />
			<glyph unicode="E" horiz-adv-x="571" d="M516 0h-414v703h396v-62h-327v-256h267v-62h-267v-261h345v-62z" />
			<glyph unicode="F" horiz-adv-x="514" d="M171 0h-69v703h370v-62h-301v-264h258v-62h-258v-315z" />
			<glyph unicode="G" horiz-adv-x="758" d="M55 352q0 152 101 258q102 105 253 105q73 0 134 -21q62 -19 89 -40l27 -21l-37 -52q-13 11 -27 19q-15 11 -72 31q-55 20 -111 20q-126 0 -206 -86q-79 -85 -79 -212q0 -131 79 -216t200 -85q59 0 116 26q52 24 80 52l25 25v119h-120v62h186v-336h-64v53l1 30h-2 q-10 -13 -38 -33q-20 -15 -47 -29q-66 -33 -144 -33q-144 0 -245 104q-99 104 -99 260z" />
			<glyph unicode="H" horiz-adv-x="750" d="M171 0h-69v703h69v-320h408v320h69v-703h-69v321h-408v-321z" />
			<glyph unicode="I" horiz-adv-x="273" d="M171 0h-69v703h69v-703z" />
			<glyph unicode="J" horiz-adv-x="524" d="M35 197v28h69v-26q0 -72 36 -109.5t93 -37.5t92.5 36.5t35.5 108.5v444h-172v62h241v-506q0 -106 -58 -158q-58 -51 -140 -51q-81 0 -139 52t-58 157z" />
			<glyph unicode="K" horiz-adv-x="601" d="M171 0h-69v703h69v-305h119l189 305h79l-210 -332v-2l224 -369h-81l-201 336h-119v-336z" />
			<glyph unicode="L" horiz-adv-x="518" d="M497 0h-395v703h69v-641h326v-62z" />
			<glyph unicode="M" horiz-adv-x="854" d="M149 0h-69l56 703h72l184 -413l34 -86h2q27 69 35 86l184 413h71l56 -703h-69l-39 492l-2 98h-2q-23 -68 -37 -98l-165 -361h-65l-165 361l-38 100h-2q1 -57 -2 -100z" />
			<glyph unicode="N" horiz-adv-x="753" d="M171 0h-69v703h67l359 -506l58 -95h2q-6 58 -6 95v506h69v-703h-67l-359 506l-58 95h-2q6 -59 6 -95v-506z" />
			<glyph unicode="O" horiz-adv-x="824" d="M54 356q0 151 104 255t254 104t254 -104t104 -255q0 -154 -105 -261q-104 -107 -253 -107t-254 107q-104 107 -104 261zM126 356q0 -127 83 -216q82 -88 203 -88q120 0 202 88q84 88 84 216q0 124 -84 210q-82 85 -202 85q-121 0 -203 -85q-83 -86 -83 -210z" />
			<glyph unicode="P" horiz-adv-x="598" d="M171 0h-69v703h243q97 0 156 -58q61 -58 61 -154q0 -98 -61 -156q-61 -59 -156 -59h-174v-276zM171 641v-303h165q71 0 113 41t42 112q0 70 -41.5 110t-112.5 40h-166z" />
			<glyph unicode="Q" horiz-adv-x="835" d="M54 356q0 152 103 255q104 104 253 104q152 0 256 -104t104 -255q0 -139 -88 -242l87 -87l-42 -43l-86 87q-98 -83 -231 -83q-149 0 -253 107q-103 106 -103 261zM126 356q0 -128 82 -216t202 -88q106 0 182 66l-86 88l42 43l85 -87q65 83 65 194q0 125 -83 210 q-82 85 -205 85q-120 0 -202 -85q-82 -83 -82 -210z" />
			<glyph unicode="R" horiz-adv-x="628" d="M171 0h-69v703h208q90 0 132 -19q50 -22 78 -69.5t28 -111.5q0 -71 -36 -122t-97 -68v-2q8 -10 18 -28l153 -283h-79l-159 296h-177v-296zM171 641v-283h167q64 0 101.5 38.5t37.5 104.5q0 89 -64 123q-32 17 -100 17h-142z" />
			<glyph unicode="S" horiz-adv-x="538" d="M74 56l-24 22l41 53q15 -15 32 -27q68 -47 152 -50q61 0 100.5 34t39.5 88q0 87 -124 137q-105 44 -141 68q-87 58 -86 145q0 77 62 133t157 56q53 0 101 -17q46 -16 67 -34l20 -17l-34 -58q-6 7 -20 17q-12 9 -53 26q-42 17 -81 17q-65 0 -107 -36q-41 -36 -41 -85 q0 -79 123 -130q33 -13 45 -17.5t43.5 -19t45 -24.5t36 -28t32.5 -36t18 -42.5t8 -52.5q0 -81 -58 -136q-58 -54 -155 -54q-66 0 -120 22q-53 21 -79 46z" />
			<glyph unicode="T" horiz-adv-x="588" d="M329 0h-69v641h-253v62h574v-62h-252v-641z" />
			<glyph unicode="U" horiz-adv-x="724" d="M93 245v458h70v-457q0 -90 54 -142t145 -52q92 0 146 52.5t54 143.5v455h69v-458q0 -116 -74 -187q-73 -70 -194 -70q-122 0 -196 70q-74 71 -74 187z" />
			<glyph unicode="V" horiz-adv-x="618" d="M345 0h-72l-261 703h74l195 -534l27 -91h2q13 54 27 91l195 534h74z" />
			<glyph unicode="W" horiz-adv-x="927" d="M486 495l-23 105h-2q-10 -55 -23 -105l-134 -495h-83l-182 703h72l136 -546l16 -75h2l2 10l14 65l148 546h66l148 -546l14 -65l2 -10h2q9 48 16 75l141 546h72l-187 -703h-83z" />
			<glyph unicode="X" horiz-adv-x="592" d="M106 0h-80l224 367l-204 336h81l123 -208l46 -81h2q20 45 42 81l124 208h82l-206 -336l225 -367h-80l-146 243l-44 78h-2q-22 -44 -43 -79z" />
			<glyph unicode="Y" horiz-adv-x="574" d="M322 0h-70v302l-237 401h79l149 -255l43 -84h2q23 50 43 84l149 255h78l-236 -401v-302z" />
			<glyph unicode="Z" horiz-adv-x="595" d="M544 0h-501v49l363 528l49 64v2q-22 -2 -51 -2h-342v62h479v-49l-363 -528q-27 -39 -44 -56l-6 -8v-2q24 2 52 2h364v-62z" />
			<glyph unicode="[" horiz-adv-x="282" d="M242 -95h-135v825h135v-56h-72v-713h72v-56z" />
			<glyph unicode="\" horiz-adv-x="393" d="M351 -42h-63l-254 784h64z" />
			<glyph unicode="]" horiz-adv-x="282" d="M40 -95v56h72v713h-72v56h135v-825h-135z" />
			<glyph unicode="^" horiz-adv-x="606" d="M139 250h-66l198 453h47l198 -453h-65l-156 370z" />
			<glyph unicode="_" horiz-adv-x="584" d="M34 -58v58h516v-58h-516z" />
			<glyph unicode="`" d="M326 752h-62l-86 119h79z" />
			<glyph unicode="a" horiz-adv-x="520" d="M41 137q0 174 308 174h28v13q0 130 -125 130q-34 0 -70 -11t-55 -25l-17 -12l-32 52l21 15q13 9 61 26q45 16 97 16q91 0 139.5 -49.5t48.5 -143.5v-322h-65v55l2 42h-2q0 -1 -2.5 -6t-7.5 -13t-13 -19q-47 -67 -145 -71q-69 0 -120 39t-51 110zM111 141 q0 -40 30.5 -67.5t81.5 -27.5q68 0 111 58t43 129v22h-29q-80 0 -146 -15q-91 -21 -91 -99z" />
			<glyph unicode="b" horiz-adv-x="589" d="M148 0h-66v703h68v-244l-2 -41h2q14 23 23 33q53 64 148 64q101 0 159 -73q60 -73 60 -191t-64 -191q-63 -72 -163 -72q-62 0 -103 29.5t-56 58.5l-6 10h-2q2 -22 2 -41v-45zM148 250q0 -82 42 -142t118 -60q69 0 115 55q47 56 47 148t-43.5 147t-115.5 55t-117.5 -52.5 t-45.5 -150.5z" />
			<glyph unicode="c" horiz-adv-x="549" d="M47 251q0 116 76 189q76 75 188 75q64 0 110.5 -21.5t66.5 -43.5l7 -7l-35 -51q-3 4 -18 17q-12 11 -51 27q-39 17 -78 17q-85 0 -140 -57q-56 -56 -56 -145q0 -88 57 -145t141 -57q92 0 155 63l6 8l31 -53q-15 -15 -32 -28q-73 -51 -164 -51q-113 0 -189 73 q-75 73 -75 190z" />
			<glyph unicode="d" horiz-adv-x="589" d="M275 515q62 0 103 -28.5t56 -56.5l5 -10h2q-2 22 -2 38v245h68v-703h-66v53l2 36h-2q-17 -29 -23 -36q-54 -65 -150 -65q-100 0 -160 73q-59 74 -59 191q0 118 63 190q63 73 163 73zM278 49q72 0 117.5 52.5t45.5 150.5q0 84 -42 142q-42 60 -118 60q-70 0 -116 -55 t-46 -147t44 -147.5t115 -55.5z" />
			<glyph unicode="e" horiz-adv-x="553" d="M47 251q0 119 71 192q72 72 177 72q100 0 155 -67q55 -65 55 -165l-2 -35h-386q2 -94 57 -146q56 -53 138 -53q38 0 76.5 14t58.5 31l18 16l31 -52q-9 -9 -24 -20q-19 -13 -64 -31q-47 -19 -98 -19q-112 0 -188 74q-75 74 -75 189zM120 304h316q-3 73 -42 113.5 t-101 40.5q-67 0 -114 -41t-59 -113z" />
			<glyph unicode="f" horiz-adv-x="320" d="M173 0h-68v440h-63v57h63v24q0 117 67 156q52 31 107 31l31 -2v-61q-14 2 -24 2q-18 0 -34.5 -4.5t-36 -16t-31 -39t-11.5 -66.5v-24h129v-57h-129v-440z" />
			<glyph unicode="g" horiz-adv-x="582" d="M94 -170l26 56q62 -35 136 -35q81 0 128.5 40t47.5 118v46l2 36h-2q-46 -88 -159 -88q-101 0 -163 72q-61 71 -61 186q0 113 59 184q58 70 159 70q69 0 109 -25t53 -50l4 -9h2q-1 4 -1 17v55h66v-491q0 -112 -70 -167q-68 -55 -171 -55q-88 0 -165 40zM284 64 q69 0 109 48.5t40 148.5q0 192 -159 192q-73 0 -114 -50.5t-41 -140.5t45 -144t120 -54z" />
			<glyph unicode="h" horiz-adv-x="593" d="M150 0h-68v703h68v-272l-2 -41h2q18 45 70 85t130 40q88 0 128 -48t40 -147v-320h-68v302q0 77 -23 113t-86 36q-65 0 -115 -40q-52 -41 -68 -103q-8 -29 -8 -67v-241z" />
			<glyph unicode="i" horiz-adv-x="232" d="M151 618h-71v85h71v-85zM150 0h-68v503h68v-503z" />
			<glyph unicode="j" horiz-adv-x="232" d="M151 618h-70v85h70v-85zM82 -16v519h68v-522q0 -118 -68 -156q-52 -31 -107 -31l-30 3v59q6 -1 22 -1q18 0 35 4.5t36.5 16.5t31.5 40t12 68z" />
			<glyph unicode="k" horiz-adv-x="502" d="M150 0h-68v703h68v-392h80l151 192h82l-175 -219v-2l192 -282h-81l-168 252h-81v-252z" />
			<glyph unicode="l" horiz-adv-x="247" d="M77 119v584h68v-569q0 -76 56 -76l17 1v-61q-16 -2 -25 -2q-116 0 -116 123z" />
			<glyph unicode="m" horiz-adv-x="916" d="M150 0h-68v503h67v-75l-2 -40h2q17 51 71 89q53 38 111 38q133 0 156 -126h2q21 53 72 89q50 37 113 37q88 0 127.5 -48t39.5 -147v-320h-68v303q0 75 -24.5 112.5t-84.5 37.5q-56 0 -100 -42q-44 -43 -59 -100q-9 -28 -9 -73v-238h-68v303q0 61 -17 102q-20 48 -89 48 q-60 0 -104 -43q-45 -45 -61 -105q-7 -27 -7 -67v-238z" />
			<glyph unicode="n" horiz-adv-x="593" d="M150 0h-68v503h67v-75l-2 -40h2q18 46 70 86q53 41 131 41q88 0 128 -48t40 -147v-320h-68v302q0 77 -23 113t-86 36q-65 0 -115 -40q-52 -39 -68 -102q-8 -30 -8 -68v-241z" />
			<glyph unicode="o" horiz-adv-x="622" d="M45 254q0 111 77 186q78 75 189 75t188 -75q78 -75 78 -186q0 -114 -78 -190q-76 -76 -188 -76t-189 76q-77 77 -77 190zM115 254q0 -88 57 -146q57 -59 139 -59t139 59q57 58 57 146q0 85 -57 142t-139 57t-139 -57t-57 -142z" />
			<glyph unicode="p" horiz-adv-x="589" d="M150 -200h-68v703h65v-49l-2 -39h2q16 26 23 35q46 62 151 65q101 0 159 -73q60 -73 60 -191q0 -117 -63 -191q-63 -72 -162 -72q-62 0 -103 28.5t-56 57.5l-6 10h-2q2 -24 2 -44v-240zM148 250q0 -81 43 -142q43 -60 117 -60q69 0 115 55q47 56 47 148t-43.5 147 t-115.5 55t-117.5 -52.5t-45.5 -150.5z" />
			<glyph unicode="q" horiz-adv-x="589" d="M275 515q62 0 104 -29.5t56 -57.5l5 -10h2q-1 11 -1 38v47h66v-703h-68v242l2 44h-2q-13 -23 -23 -34q-53 -64 -148 -64q-100 0 -160 73q-59 74 -59 191q0 118 63 190q63 73 163 73zM278 49q72 0 117.5 52.5t45.5 150.5q0 84 -42 142q-42 60 -118 60q-70 0 -116 -55 t-46 -147t44 -147.5t115 -55.5z" />
			<glyph unicode="r" horiz-adv-x="356" d="M150 0h-68v503h67v-89l-2 -40h2q19 61 61 97.5t98 36.5l27 -3v-67q-16 2 -25 2q-51 0 -89.5 -35.5t-56.5 -94.5q-14 -47 -14 -98v-212z" />
			<glyph unicode="s" horiz-adv-x="443" d="M48 54l-7 7l37 49q3 -4 18 -17q12 -11 51 -27q40 -17 81 -17q44 0 72.5 21.5t28.5 58.5q0 52 -96 88q-30 11 -48 18t-45.5 22t-43 30t-27.5 38.5t-11 50.5q0 64 50 102q49 37 122 37q90 0 150 -49l5 -6l-31 -52l-15 12q-9 8 -42 21q-30 13 -69 13q-44 0 -72 -20t-28 -58 q0 -52 96 -88q39 -14 61.5 -24t53 -29t45.5 -45.5t15 -60.5q0 -61 -48 -102q-48 -39 -124 -39q-64 0 -109.5 21t-69.5 45z" />
			<glyph unicode="t" horiz-adv-x="335" d="M101 183v257h-66v57h67v145h67v-145h126v-57h-126v-250q0 -34 8.5 -59t20.5 -39t28 -22t29 -10.5t27 -2.5l23 2v-61q-14 -2 -29 -2q-21 0 -41 3t-45.5 14.5t-44 30.5t-31.5 55t-13 84z" />
			<glyph unicode="u" horiz-adv-x="588" d="M75 183v320h68v-302q0 -77 23 -113t86 -36q83 0 134 62q52 61 52 148v241h68v-503h-66v75l2 40h-2q-20 -48 -71 -87q-50 -40 -126 -40q-87 0 -127.5 47.5t-40.5 147.5z" />
			<glyph unicode="v" horiz-adv-x="485" d="M280 0h-74l-193 503h72l140 -369l17 -60h2q8 34 18 60l139 369h71z" />
			<glyph unicode="w" horiz-adv-x="801" d="M261 0h-74l-170 503h72l122 -375l15 -54h2q8 30 15 54l124 373h67l124 -373l15 -54h2l15 54l122 375h72l-170 -503h-74l-123 358l-16 54h-2l-15 -54z" />
			<glyph unicode="x" horiz-adv-x="491" d="M247 217h-2h-1q-5 -10 -17 -28l-122 -189h-80l177 262l-162 241h80l108 -169l17 -29h1l17 29l108 169h80l-162 -241l177 -262h-80l-122 189z" />
			<glyph unicode="y" horiz-adv-x="499" d="M18 -188l-11 8l26 54q29 -23 60 -23q59 0 95 82l31 71l-210 499h75l148 -367l18 -53h2q9 32 17 53l145 367h74l-248 -608q-20 -49 -58.5 -77t-86.5 -28q-45 0 -77 22z" />
			<glyph unicode="z" horiz-adv-x="509" d="M465 0h-423v44l281 353l40 46v2q-22 -2 -50 -2h-259v60h401v-45l-281 -352l-41 -46v-2q24 2 51 2h281v-60z" />
			<glyph unicode="{" horiz-adv-x="336" d="M138 83v95q0 53 -26 81.5t-50 30.5l-9 2v62q3 0 9 1.5t20.5 9t26 18.5t20.5 34t9 52v82q0 89 40 135q47 46 109 44h15v-56h-9q-28 0 -55 -19q-37 -24 -37 -106v-98q0 -51 -24.5 -82.5t-47.5 -40.5l-8 -4v-2q3 -1 8.5 -3.5t19.5 -12t24.5 -22.5t19 -36.5t8.5 -52.5v-110 q0 -80 37 -106q29 -19 55 -19h9v-56q-4 -1 -15 -1q-37 0 -70 16q-79 39 -79 164z" />
			<glyph unicode="|" horiz-adv-x="275" d="M169 -157h-63v945h63v-945z" />
			<glyph unicode="}" horiz-adv-x="336" d="M34 -96v56h10q12 0 24.5 4t29 15.5t27 38.5t10.5 67v110q0 53 24 84t48 40l8 3v2q-3 1 -8.5 3.5t-19.5 13t-24.5 23.5t-19 36.5t-8.5 50.5v98q0 82 -37 106q-27 19 -54 19h-10v56h16q37 0 68 -16q80 -39 80 -163v-82q0 -44 20 -73.5t44 -35.5l21 -6v-62q-3 0 -9 -1.5 t-20.5 -9t-26 -18.5t-20.5 -33.5t-9 -51.5v-95q0 -92 -41 -135q-45 -48 -107 -45z" />
			<glyph unicode="~" horiz-adv-x="602" d="M133 209h-59q0 77 33 116t94 39q30 0 54 -10.5t39.5 -26t30 -31t33.5 -26t42 -10.5q37 0 54 28.5t17 71.5h59q0 -77 -33 -116t-94 -39q-67 0 -109 52t-90 52q-37 0 -54 -28.5t-17 -71.5z" />
			<glyph unicode="&#xa1;" horiz-adv-x="274" d="M175 426h-77v77h77v-77zM172 -200h-70l3 519h64z" />
			<glyph unicode="&#xa2;" horiz-adv-x="572" d="M326 -13h-56v85q-99 11 -155 89q-55 77 -55 191t55 190q56 78 155 89v84h56v-84q129 -15 187 -148l-64 -24q-49 108 -148 108q-81 0 -125.5 -58.5t-44.5 -156.5q0 -99 44 -157t126 -58q99 0 148 108l64 -25q-61 -136 -187 -148v-85z" />
			<glyph unicode="&#xa3;" horiz-adv-x="589" d="M122 326h-44v55h44v149q0 80 58 132q59 53 149 53q39 0 78.5 -13.5t59.5 -29.5l18 -14l-42 -50q-49 42 -114 42q-63 0 -100 -35t-37 -89v-145h192v-55h-192v-264h339v-62h-472v62h63v264z" />
			<glyph unicode="&#xa5;" horiz-adv-x="601" d="M238 350h-135v51h106l-175 302h79l143 -249q17 -31 38 -76l5 -14h2q17 43 43 90l144 249h79l-176 -302h105v-51h-133l-27 -48v-39h160v-52h-160v-211h-70v211h-163v52h163v39z" />
			<glyph unicode="&#xa7;" horiz-adv-x="412" d="M200 85h-60l-68 434q-4 15 -4 35q0 70 47 115q47 46 125 46q28 0 57.5 -10t44.5 -21l14 -11l-35 -47q-35 29 -81 29q-48 0 -79 -29t-31 -78q0 -18 4 -31zM68 -30l-13 10l35 48q34 -30 82 -30t78.5 29.5t30.5 79.5q0 19 -4 32l-65 429h60l68 -434q4 -23 4 -35 q0 -70 -48 -115q-47 -46 -125 -46q-62 0 -103 32z" />
			<glyph unicode="&#xa8;" d="M359 785h-62v86h62v-86zM207 785h-61v86h61v-86z" />
			<glyph unicode="&#xa9;" horiz-adv-x="831" d="M60 352q0 151 103 257t250 106q150 0 253 -106q105 -107 105 -257q0 -152 -104 -259q-103 -105 -254 -105q-147 0 -250 106t-103 258zM119 352q0 -132 85 -221q86 -89 209 -89q127 0 213 89q87 90 87 221q0 130 -87 219q-86 90 -213 90q-123 0 -209 -90q-85 -88 -85 -219 zM217 350q0 83 56 145q55 61 150 61q57 0 98 -28t59 -56l6 -9l-46 -31q-14 19 -19 24q-41 45 -96 45q-68 0 -109 -44q-40 -43 -40 -106q0 -62 39 -106q41 -44 110 -44q66 0 111 62l4 7l46 -31q-8 -13 -26 -32q-57 -61 -137 -61q-95 0 -151 60q-55 61 -55 144z" />
			<glyph unicode="&#xaa;" horiz-adv-x="427" d="M193 382q-46 0 -78 26t-32 69q0 111 191 111h13v4q0 74 -71 74q-43 0 -73 -22l-11 -7l-26 39q43 37 115 37q120 0 120 -123v-202h-52v49h-2q-4 -7 -10 -15q-8 -12 -33 -26t-51 -14zM201 430q38 0 61 32q24 33 24 73v9h-12q-135 0 -135 -62q0 -22 17 -37t45 -15zM345 264 h-264v47h264v-47z" />
			<glyph unicode="&#xab;" horiz-adv-x="523" d="M393 77l-164 205l164 206h74l-164 -206l164 -205h-74zM287 77h-73l-164 205l164 206h73l-164 -206z" />
			<glyph unicode="&#xac;" horiz-adv-x="623" d="M478 342h-405v58h466v-242h-61v184z" />
			<glyph unicode="&#xad;" horiz-adv-x="492" d="M388 253h-284v62h284v-62z" />
			<glyph unicode="&#xae;" horiz-adv-x="831" d="M60 352q0 151 103 257t250 106q150 0 253 -106q105 -107 105 -257q0 -152 -104 -259q-103 -105 -254 -105q-147 0 -250 106t-103 258zM119 352q0 -132 85 -221q86 -89 209 -89q127 0 213 89q87 90 87 221q0 130 -87 219q-86 90 -213 90q-123 0 -209 -90q-85 -88 -85 -219 zM351 157h-56v390h139q52 0 84.5 -32t32.5 -84q0 -40 -21 -68t-52 -35v-2q2 -2 13 -22l75 -147h-62l-78 158h-75v-158zM351 500v-141h73q32 0 50.5 19t18.5 53q0 33 -18.5 51t-50.5 18h-73z" />
			<glyph unicode="&#xaf;" d="M375 785h-246v55h246v-55z" />
			<glyph unicode="&#xb0;" horiz-adv-x="381" d="M190 436q-59 0 -99 40q-41 41 -41 99q0 57 41 98t99 41t99 -41q42 -41 42 -98q0 -58 -41 -99q-40 -40 -100 -40zM272 575q0 34 -24 58.5t-58 24.5q-33 0 -56.5 -24.5t-23.5 -58.5q0 -35 23 -59t57 -24t58 24t24 59z" />
			<glyph unicode="&#xb1;" horiz-adv-x="688" d="M314 255h-231v58h231v255h61v-255h230v-58h-230v-255h-61v255zM101 -162v58h486v-58h-486z" />
			<glyph unicode="&#xb4;" d="M240 752h-62l69 119h79z" />
			<glyph unicode="&#xb5;" horiz-adv-x="609" d="M152 -200h-63v703h68v-302q0 -76 23.5 -112.5t86.5 -36.5q82 0 133 62q52 62 52 148v241h68v-503h-66v76l2 39h-2q-8 -19 -28 -44q-16 -23 -36 -39q-52 -44 -132 -44q-35 0 -63.5 10t-38.5 22l-9 10h-2q7 -48 7 -76v-154z" />
			<glyph unicode="&#xb6;" horiz-adv-x="573" d="M345 -50h-57v291q-99 0 -169 67t-70 165q0 97 70 163q70 67 168 67h239v-62h-181v-691zM465 -50h-58v631h58v-631z" />
			<glyph unicode="&#xb7;" horiz-adv-x="271" d="M174 248h-77v80h77v-80z" />
			<glyph unicode="&#xb8;" d="M200 -91l26 111l40 -7v-8l-11 -60q32 -5 51 -24t19 -47q0 -40 -26 -59.5t-70 -19.5l-50 5v48q19 -6 42 -6q51 0 51 34t-57 34z" />
			<glyph unicode="&#xba;" horiz-adv-x="474" d="M69 550q0 70 49 116q49 48 118 48t118 -48q49 -46 49 -116q0 -71 -49 -119q-48 -48 -118 -48t-119 48q-48 48 -48 119zM348 550q0 49 -32.5 81.5t-79.5 32.5t-79.5 -32.5t-32.5 -81.5q0 -50 32 -83t80 -33t80 33t32 83zM389 264h-303v47h303v-47z" />
			<glyph unicode="&#xbb;" horiz-adv-x="524" d="M310 77h-74l164 205l-164 206h74l164 -206zM130 77h-74l164 205l-164 206h74l164 -206z" />
			<glyph unicode="&#xbf;" horiz-adv-x="440" d="M296 426h-77v77h77v-77zM45 -33q0 85 63 144q8 8 30.5 28t33 31t25.5 30t21 38t6 41v40h67v-43q0 -81 -62 -139q-7 -7 -29 -28t-32 -31.5t-24.5 -29.5t-20.5 -38t-6 -40q0 -49 37 -82t94 -33q58 0 106 31l15 11l37 -50q-12 -10 -20 -15q-11 -9 -55 -26q-41 -16 -86 -16 q-85 0 -143 50q-57 50 -57 127z" />
			<glyph unicode="&#xc0;" horiz-adv-x="616" d="M603 0h-73l-81 224h-283l-80 -224h-73l258 703h74zM336 539l-27 91h-2q-15 -57 -27 -91l-94 -255h242zM340 752h-62l-86 119h79z" />
			<glyph unicode="&#xc1;" horiz-adv-x="616" d="M603 0h-73l-81 224h-283l-80 -224h-73l258 703h74zM336 539l-27 91h-2q-15 -57 -27 -91l-94 -255h242zM338 752h-62l69 119h79z" />
			<glyph unicode="&#xc2;" horiz-adv-x="616" d="M603 0h-73l-81 224h-283l-80 -224h-73l258 703h74zM336 539l-27 91h-2q-15 -57 -27 -91l-94 -255h242zM253 752h-66l83 119h75l84 -119h-66l-54 81h-2z" />
			<glyph unicode="&#xc3;" horiz-adv-x="616" d="M603 0h-73l-81 224h-283l-80 -224h-73l258 703h74zM336 539l-27 91h-2q-15 -57 -27 -91l-94 -255h242zM207 755h-55q0 117 92 117q25 0 48.5 -18t43 -36t34.5 -18q40 0 40 69h54q0 -117 -92 -117q-25 -1 -49 17.5t-43 36.5t-34 17q-39 0 -39 -68z" />
			<glyph unicode="&#xc4;" horiz-adv-x="616" d="M603 0h-73l-81 224h-283l-80 -224h-73l258 703h74zM336 539l-27 91h-2q-15 -57 -27 -91l-94 -255h242zM415 785h-62v86h62v-86zM263 785h-61v86h61v-86z" />
			<glyph unicode="&#xc5;" horiz-adv-x="616" d="M603 0h-73l-81 224h-283l-80 -224h-73l258 703h74zM336 539l-27 91h-2q-15 -57 -27 -91l-94 -255h242zM361 761q-22 -20 -53 -20t-53 20t-22 51t22 51t53 20t53 -20q23 -20 23 -51t-23 -51zM308 779q15 0 24 9.5t9 23.5q0 15 -9 24.5t-24 9.5q-14 0 -23 -9.5t-9 -24.5 q0 -14 9 -23.5t23 -9.5z" />
			<glyph unicode="&#xc6;" horiz-adv-x="853" d="M83 0h-73l289 703h481v-62h-327v-256h267v-62h-267v-261h345v-62h-414v324h-170zM384 641h-41l-104 -257h145v257z" />
			<glyph unicode="&#xc7;" horiz-adv-x="729" d="M56 356q0 152 101 256q100 103 252 103q92 0 162 -32q56 -26 81 -49l10 -10l-37 -51q-11 11 -38 27q-20 13 -44 24q-64 27 -132 27q-124 0 -203 -85q-80 -85 -80 -209q0 -128 80 -217q81 -88 205 -88q125 0 219 84l9 10l40 -49q-18 -18 -43 -37q-28 -20 -53 -33 q-73 -38 -163 -39l-8 -43q32 -5 51 -24t19 -47q0 -40 -26 -59.5t-70 -19.5l-50 5v48q20 -6 42 -6q51 0 51 34t-57 34l-15 -1l19 81q-142 12 -232 115t-90 251z" />
			<glyph unicode="&#xc8;" horiz-adv-x="571" d="M516 0h-414v703h396v-62h-327v-256h267v-62h-267v-261h345v-62zM343 752h-62l-86 119h79z" />
			<glyph unicode="&#xc9;" horiz-adv-x="571" d="M516 0h-414v703h396v-62h-327v-256h267v-62h-267v-261h345v-62zM341 752h-62l69 119h79z" />
			<glyph unicode="&#xca;" horiz-adv-x="571" d="M257 752h-66l83 119h75l84 -119h-66l-54 81h-2zM516 0h-414v703h396v-62h-327v-256h267v-62h-267v-261h345v-62z" />
			<glyph unicode="&#xcb;" horiz-adv-x="571" d="M516 0h-414v703h396v-62h-327v-256h267v-62h-267v-261h345v-62zM419 785h-62v86h62v-86zM267 785h-61v86h61v-86z" />
			<glyph unicode="&#xcc;" horiz-adv-x="273" d="M169 752h-62l-86 119h79zM171 0h-69v703h69v-703z" />
			<glyph unicode="&#xcd;" horiz-adv-x="273" d="M171 0h-69v703h69v-703zM166 752h-62l69 119h79z" />
			<glyph unicode="&#xce;" horiz-adv-x="273" d="M82 752h-66l83 119h75l84 -119h-66l-54 81h-2zM171 0h-69v703h69v-703z" />
			<glyph unicode="&#xcf;" horiz-adv-x="273" d="M244 785h-62v86h62v-86zM92 785h-61v86h61v-86zM171 0h-69v703h69v-703z" />
			<glyph unicode="&#xd0;" horiz-adv-x="754" d="M118 323h-60v60h60v320h226q162 0 257 -94q96 -93 96 -257q0 -166 -96 -259t-257 -93h-226v323zM187 323v-261h150q133 0 210.5 76.5t77.5 213.5t-77.5 213t-210.5 76h-150v-258h167v-60h-167z" />
			<glyph unicode="&#xd1;" horiz-adv-x="753" d="M276 755h-55q0 117 92 117q25 0 48.5 -18t43 -36t34.5 -18q40 0 40 69h54q0 -117 -92 -117q-25 -1 -49 17.5t-43 36.5t-34 17q-39 0 -39 -68zM171 0h-69v703h67l359 -506l58 -95h2q-6 58 -6 95v506h69v-703h-67l-359 506l-58 95h-2q6 -59 6 -95v-506z" />
			<glyph unicode="&#xd2;" horiz-adv-x="824" d="M54 356q0 151 104 255t254 104t254 -104t104 -255q0 -154 -105 -261q-104 -107 -253 -107t-254 107q-104 107 -104 261zM126 356q0 -127 83 -216q82 -88 203 -88q120 0 202 88q84 88 84 216q0 124 -84 210q-82 85 -202 85q-121 0 -203 -85q-83 -86 -83 -210zM443 752h-62 l-86 119h79z" />
			<glyph unicode="&#xd3;" horiz-adv-x="824" d="M54 356q0 151 104 255t254 104t254 -104t104 -255q0 -154 -105 -261q-104 -107 -253 -107t-254 107q-104 107 -104 261zM126 356q0 -127 83 -216q82 -88 203 -88q120 0 202 88q84 88 84 216q0 124 -84 210q-82 85 -202 85q-121 0 -203 -85q-83 -86 -83 -210zM441 752h-62 l69 119h79z" />
			<glyph unicode="&#xd4;" horiz-adv-x="824" d="M357 752h-66l83 119h75l84 -119h-66l-54 81h-2zM54 356q0 151 104 255t254 104t254 -104t104 -255q0 -154 -105 -261q-104 -107 -253 -107t-254 107q-104 107 -104 261zM126 356q0 -127 83 -216q82 -88 203 -88q120 0 202 88q84 88 84 216q0 124 -84 210q-82 85 -202 85 q-121 0 -203 -85q-83 -86 -83 -210z" />
			<glyph unicode="&#xd5;" horiz-adv-x="824" d="M311 755h-55q0 117 92 117q25 0 48.5 -18t43 -36t34.5 -18q40 0 40 69h54q0 -117 -92 -117q-25 -1 -49 17.5t-43 36.5t-34 17q-39 0 -39 -68zM54 356q0 151 104 255t254 104t254 -104t104 -255q0 -154 -105 -261q-104 -107 -253 -107t-254 107q-104 107 -104 261z M126 356q0 -127 83 -216q82 -88 203 -88q120 0 202 88q84 88 84 216q0 124 -84 210q-82 85 -202 85q-121 0 -203 -85q-83 -86 -83 -210z" />
			<glyph unicode="&#xd6;" horiz-adv-x="824" d="M54 356q0 151 104 255t254 104t254 -104t104 -255q0 -154 -105 -261q-104 -107 -253 -107t-254 107q-104 107 -104 261zM126 356q0 -127 83 -216q82 -88 203 -88q120 0 202 88q84 88 84 216q0 124 -84 210q-82 85 -202 85q-121 0 -203 -85q-83 -86 -83 -210zM519 785h-62 v86h62v-86zM367 785h-61v86h61v-86z" />
			<glyph unicode="&#xd8;" horiz-adv-x="827" d="M56 356q0 151 104 255t254 104q100 0 189 -53l47 66l41 -30l-47 -66q60 -51 94 -123t34 -153q0 -154 -105 -261q-104 -107 -253 -107q-104 0 -192 56l-48 -68l-42 29l49 69q-59 51 -92 124.5t-33 157.5zM700 356q0 134 -95 221l-344 -479q70 -46 153 -46q120 0 202 88 q84 88 84 216zM128 356q0 -136 93 -226l343 478q-70 43 -150 43q-121 0 -203 -85q-83 -86 -83 -210z" />
			<glyph unicode="&#xd9;" horiz-adv-x="724" d="M93 245v458h70v-457q0 -90 54 -142t145 -52q92 0 146 52.5t54 143.5v455h69v-458q0 -116 -74 -187q-73 -70 -194 -70q-122 0 -196 70q-74 71 -74 187zM394 752h-62l-86 119h79z" />
			<glyph unicode="&#xda;" horiz-adv-x="724" d="M93 245v458h70v-457q0 -90 54 -142t145 -52q92 0 146 52.5t54 143.5v455h69v-458q0 -116 -74 -187q-73 -70 -194 -70q-122 0 -196 70q-74 71 -74 187zM392 752h-62l69 119h79z" />
			<glyph unicode="&#xdb;" horiz-adv-x="724" d="M307 752h-66l83 119h75l84 -119h-66l-54 81h-2zM93 245v458h70v-457q0 -90 54 -142t145 -52q92 0 146 52.5t54 143.5v455h69v-458q0 -116 -74 -187q-73 -70 -194 -70q-122 0 -196 70q-74 71 -74 187z" />
			<glyph unicode="&#xdc;" horiz-adv-x="724" d="M93 245v458h70v-457q0 -90 54 -142t145 -52q92 0 146 52.5t54 143.5v455h69v-458q0 -116 -74 -187q-73 -70 -194 -70q-122 0 -196 70q-74 71 -74 187zM469 785h-62v86h62v-86zM317 785h-61v86h61v-86z" />
			<glyph unicode="&#xdd;" horiz-adv-x="574" d="M322 0h-70v302l-237 401h79l149 -255l43 -84h2q23 50 43 84l149 255h78l-236 -401v-302zM316 752h-62l69 119h79z" />
			<glyph unicode="&#xde;" horiz-adv-x="599" d="M171 0h-69v703h69v-125h174q95 0 156 -58t61 -155q0 -96 -62 -155t-157 -59h-172v-151zM171 516v-303h165q71 0 112.5 40.5t41.5 111.5t-41 111t-112 40h-166z" />
			<glyph unicode="&#xdf;" horiz-adv-x="573" d="M150 0h-68v531q0 85 60 134q61 50 141 50q77 0 126 -44q49 -43 49 -105q0 -66 -56 -114q-55 -49 -55 -83q0 -36 97 -95q40 -23 69 -60.5t29 -77.5q0 -68 -47 -106q-46 -37 -115 -37q-86 0 -132 24l-16 8v65q60 -36 143 -36q43 0 70.5 22t27.5 62q0 29 -28.5 58t-69.5 52 t-69.5 54.5t-28.5 64.5q0 52 55 101q56 48 56 97q0 37 -29.5 62.5t-78.5 25.5q-53 0 -91 -34q-39 -35 -39 -93v-526z" />
			<glyph unicode="&#xe0;" horiz-adv-x="520" d="M41 137q0 174 308 174h28v13q0 130 -125 130q-34 0 -70 -11t-55 -25l-17 -12l-32 52l21 15q13 9 61 26q45 16 97 16q91 0 139.5 -49.5t48.5 -143.5v-322h-65v55l2 42h-2q0 -1 -2.5 -6t-7.5 -13t-13 -19q-47 -67 -145 -71q-69 0 -120 39t-51 110zM111 141 q0 -40 30.5 -67.5t81.5 -27.5q68 0 111 58t43 129v22h-29q-80 0 -146 -15q-91 -21 -91 -99zM290 584h-62l-86 119h79z" />
			<glyph unicode="&#xe1;" horiz-adv-x="520" d="M41 137q0 174 308 174h28v13q0 130 -125 130q-34 0 -70 -11t-55 -25l-17 -12l-32 52l21 15q13 9 61 26q45 16 97 16q91 0 139.5 -49.5t48.5 -143.5v-322h-65v55l2 42h-2q0 -1 -2.5 -6t-7.5 -13t-13 -19q-47 -67 -145 -71q-69 0 -120 39t-51 110zM111 141 q0 -40 30.5 -67.5t81.5 -27.5q68 0 111 58t43 129v22h-29q-80 0 -146 -15q-91 -21 -91 -99zM287 584h-62l69 119h79z" />
			<glyph unicode="&#xe2;" horiz-adv-x="520" d="M41 137q0 174 308 174h28v13q0 130 -125 130q-34 0 -70 -11t-55 -25l-17 -12l-32 52l21 15q13 9 61 26q45 16 97 16q91 0 139.5 -49.5t48.5 -143.5v-322h-65v55l2 42h-2q0 -1 -2.5 -6t-7.5 -13t-13 -19q-47 -67 -145 -71q-69 0 -120 39t-51 110zM111 141 q0 -40 30.5 -67.5t81.5 -27.5q68 0 111 58t43 129v22h-29q-80 0 -146 -15q-91 -21 -91 -99zM204 584h-66l83 119h75l84 -119h-66l-54 81h-2z" />
			<glyph unicode="&#xe3;" horiz-adv-x="520" d="M41 137q0 174 308 174h28v13q0 130 -125 130q-34 0 -70 -11t-55 -25l-17 -12l-32 52l21 15q13 9 61 26q45 16 97 16q91 0 139.5 -49.5t48.5 -143.5v-322h-65v55l2 42h-2q0 -1 -2.5 -6t-7.5 -13t-13 -19q-47 -67 -145 -71q-69 0 -120 39t-51 110zM111 141 q0 -40 30.5 -67.5t81.5 -27.5q68 0 111 58t43 129v22h-29q-80 0 -146 -15q-91 -21 -91 -99zM158 587h-55q0 117 92 117q25 0 48.5 -18t43 -36t34.5 -18q40 0 40 69h54q0 -117 -92 -117q-25 -1 -49 17.5t-43 36.5t-34 17q-39 0 -39 -68z" />
			<glyph unicode="&#xe4;" horiz-adv-x="520" d="M41 137q0 174 308 174h28v13q0 130 -125 130q-34 0 -70 -11t-55 -25l-17 -12l-32 52l21 15q13 9 61 26q45 16 97 16q91 0 139.5 -49.5t48.5 -143.5v-322h-65v55l2 42h-2q0 -1 -2.5 -6t-7.5 -13t-13 -19q-47 -67 -145 -71q-69 0 -120 39t-51 110zM111 141 q0 -40 30.5 -67.5t81.5 -27.5q68 0 111 58t43 129v22h-29q-80 0 -146 -15q-91 -21 -91 -99zM366 617h-62v86h62v-86zM214 617h-61v86h61v-86z" />
			<glyph unicode="&#xe5;" horiz-adv-x="520" d="M41 137q0 174 308 174h28v13q0 130 -125 130q-34 0 -70 -11t-55 -25l-17 -12l-32 52l21 15q13 9 61 26q45 16 97 16q91 0 139.5 -49.5t48.5 -143.5v-322h-65v55l2 42h-2q0 -1 -2.5 -6t-7.5 -13t-13 -19q-47 -67 -145 -71q-69 0 -120 39t-51 110zM111 141 q0 -40 30.5 -67.5t81.5 -27.5q68 0 111 58t43 129v22h-29q-80 0 -146 -15q-91 -21 -91 -99zM311 593q-22 -20 -53 -20t-53 20t-22 51t22 51t53 20t53 -20q23 -20 23 -51t-23 -51zM258 611q15 0 24 9.5t9 23.5q0 15 -9 24.5t-24 9.5q-14 0 -23 -9.5t-9 -24.5q0 -14 9 -23.5 t23 -9.5z" />
			<glyph unicode="&#xe6;" horiz-adv-x="870" d="M41 137q0 95 84 136q52 24 110 29q45 5 108 5h33v17q0 130 -128 130q-70 0 -122 -36l-17 -12l-31 51l21 16q11 8 59 26q44 16 94 16q137 0 170 -104h2q62 104 190 104q96 0 152 -66q56 -65 56 -160l-2 -38h-378q2 -95 53.5 -148.5t134.5 -53.5q37 0 75.5 14t58.5 31 l18 16l31 -52q-8 -8 -23 -20q-19 -13 -64 -31q-47 -19 -99 -19q-77 0 -135 37t-86 103h-2q-4 -15 -15 -34t-32 -45t-58.5 -43.5t-84.5 -17.5q-74 0 -123 39q-50 41 -50 110zM446 307h307q-3 72 -42.5 111t-99.5 39q-66 0 -109.5 -39t-55.5 -111zM111 141q0 -40 30.5 -67.5 t82.5 -27.5q68 0 110 58q43 58 43 130v17h-59q-76 0 -134 -16q-73 -20 -73 -94z" />
			<glyph unicode="&#xe7;" horiz-adv-x="550" d="M48 251q0 116 76 189q76 75 188 75q64 0 110.5 -21.5t66.5 -43.5l7 -7l-35 -51q-3 4 -18 17q-12 11 -51 27q-39 17 -78 17q-84 0 -140 -57q-56 -56 -56 -145q0 -88 57 -145t141 -57q53 0 95 21t59 42l7 8l31 -53l-22 -21q-12 -12 -63 -35q-49 -22 -102 -23l-8 -43 q32 -5 51 -24t19 -47q0 -40 -26 -59.5t-70 -19.5l-50 5v48q19 -6 42 -6q51 0 51 34t-57 34l-15 -1l19 81q-100 10 -165 83q-64 71 -64 178z" />
			<glyph unicode="&#xe8;" horiz-adv-x="553" d="M47 251q0 119 71 192q72 72 177 72q100 0 155 -67q55 -65 55 -165l-2 -35h-386q2 -94 57 -146q56 -53 138 -53q38 0 76.5 14t58.5 31l18 16l31 -52q-9 -9 -24 -20q-19 -13 -64 -31q-47 -19 -98 -19q-112 0 -188 74q-75 74 -75 189zM120 304h316q-3 73 -42 113.5 t-101 40.5q-67 0 -114 -41t-59 -113zM328 584h-62l-86 119h79z" />
			<glyph unicode="&#xe9;" horiz-adv-x="553" d="M47 251q0 119 71 192q72 72 177 72q100 0 155 -67q55 -65 55 -165l-2 -35h-386q2 -94 57 -146q56 -53 138 -53q38 0 76.5 14t58.5 31l18 16l31 -52q-9 -9 -24 -20q-19 -13 -64 -31q-47 -19 -98 -19q-112 0 -188 74q-75 74 -75 189zM120 304h316q-3 73 -42 113.5 t-101 40.5q-67 0 -114 -41t-59 -113zM325 584h-62l69 119h79z" />
			<glyph unicode="&#xea;" horiz-adv-x="553" d="M47 251q0 119 71 192q72 72 177 72q100 0 155 -67q55 -65 55 -165l-2 -35h-386q2 -94 57 -146q56 -53 138 -53q38 0 76.5 14t58.5 31l18 16l31 -52q-9 -9 -24 -20q-19 -13 -64 -31q-47 -19 -98 -19q-112 0 -188 74q-75 74 -75 189zM120 304h316q-3 73 -42 113.5 t-101 40.5q-67 0 -114 -41t-59 -113zM241 584h-66l83 119h75l84 -119h-66l-54 81h-2z" />
			<glyph unicode="&#xeb;" horiz-adv-x="553" d="M47 251q0 119 71 192q72 72 177 72q100 0 155 -67q55 -65 55 -165l-2 -35h-386q2 -94 57 -146q56 -53 138 -53q38 0 76.5 14t58.5 31l18 16l31 -52q-9 -9 -24 -20q-19 -13 -64 -31q-47 -19 -98 -19q-112 0 -188 74q-75 74 -75 189zM120 304h316q-3 73 -42 113.5 t-101 40.5q-67 0 -114 -41t-59 -113zM403 617h-62v86h62v-86zM251 617h-61v86h61v-86z" />
			<glyph unicode="&#xec;" horiz-adv-x="232" d="M148 584h-62l-86 119h79zM150 0h-68v503h68v-503z" />
			<glyph unicode="&#xed;" horiz-adv-x="232" d="M150 0h-68v503h68v-503zM146 584h-62l69 119h79z" />
			<glyph unicode="&#xee;" horiz-adv-x="232" d="M62 584h-66l83 119h75l84 -119h-66l-54 81h-2zM150 0h-68v503h68v-503z" />
			<glyph unicode="&#xef;" horiz-adv-x="232" d="M224 617h-62v86h62v-86zM72 617h-61v86h61v-86zM150 0h-68v503h68v-503z" />
			<glyph unicode="&#xf0;" horiz-adv-x="588" d="M49 232q0 96 63 165q64 70 176 70q40 0 76.5 -12.5t53.5 -28.5l14 -13h2q-35 98 -124 159l-176 -80l-13 48l135 63q-65 33 -142 51l20 58q113 -28 196 -77l131 59l13 -48l-97 -45q151 -118 151 -328q0 -71 -24.5 -133.5t-82.5 -107t-141 -44.5q-105 0 -168 73t-63 171z M119 231q0 -73 44 -128q43 -54 119 -54q86 0 131 64q45 65 45 147q0 65 -45 107t-118 42q-84 0 -131 -53q-45 -52 -45 -125z" />
			<glyph unicode="&#xf1;" horiz-adv-x="593" d="M210 587h-55q0 117 92 117q25 0 48.5 -18t43 -36t34.5 -18q40 0 40 69h54q0 -117 -92 -117q-25 -1 -49 17.5t-43 36.5t-34 17q-39 0 -39 -68zM150 0h-68v503h67v-75l-2 -40h2q18 46 70 86q53 41 131 41q88 0 128 -48t40 -147v-320h-68v302q0 77 -23 113t-86 36 q-65 0 -115 -40q-52 -39 -68 -102q-8 -30 -8 -68v-241z" />
			<glyph unicode="&#xf2;" horiz-adv-x="622" d="M45 254q0 111 77 186q78 75 189 75t188 -75q78 -75 78 -186q0 -114 -78 -190q-76 -76 -188 -76t-189 76q-77 77 -77 190zM115 254q0 -88 57 -146q57 -59 139 -59t139 59q57 58 57 146q0 85 -57 142t-139 57t-139 -57t-57 -142zM343 584h-62l-86 119h79z" />
			<glyph unicode="&#xf3;" horiz-adv-x="622" d="M45 254q0 111 77 186q78 75 189 75t188 -75q78 -75 78 -186q0 -114 -78 -190q-76 -76 -188 -76t-189 76q-77 77 -77 190zM115 254q0 -88 57 -146q57 -59 139 -59t139 59q57 58 57 146q0 85 -57 142t-139 57t-139 -57t-57 -142zM341 584h-62l69 119h79z" />
			<glyph unicode="&#xf4;" horiz-adv-x="622" d="M256 584h-66l83 119h75l84 -119h-66l-54 81h-2zM45 254q0 111 77 186q78 75 189 75t188 -75q78 -75 78 -186q0 -114 -78 -190q-76 -76 -188 -76t-189 76q-77 77 -77 190zM115 254q0 -88 57 -146q57 -59 139 -59t139 59q57 58 57 146q0 85 -57 142t-139 57t-139 -57 t-57 -142z" />
			<glyph unicode="&#xf5;" horiz-adv-x="622" d="M210 587h-55q0 117 92 117q25 0 48.5 -18t43 -36t34.5 -18q40 0 40 69h54q0 -117 -92 -117q-25 -1 -49 17.5t-43 36.5t-34 17q-39 0 -39 -68zM45 254q0 111 77 186q78 75 189 75t188 -75q78 -75 78 -186q0 -114 -78 -190q-76 -76 -188 -76t-189 76q-77 77 -77 190z M115 254q0 -88 57 -146q57 -59 139 -59t139 59q57 58 57 146q0 85 -57 142t-139 57t-139 -57t-57 -142z" />
			<glyph unicode="&#xf6;" horiz-adv-x="622" d="M45 254q0 111 77 186q78 75 189 75t188 -75q78 -75 78 -186q0 -114 -78 -190q-76 -76 -188 -76t-189 76q-77 77 -77 190zM115 254q0 -88 57 -146q57 -59 139 -59t139 59q57 58 57 146q0 85 -57 142t-139 57t-139 -57t-57 -142zM418 617h-62v86h62v-86zM266 617h-61v86h61 v-86z" />
			<glyph unicode="&#xf7;" horiz-adv-x="646" d="M360 433h-75v74h75v-74zM568 255h-490v58h490v-58zM360 61h-75v74h75v-74z" />
			<glyph unicode="&#xf8;" horiz-adv-x="624" d="M46 254q0 111 77 186q78 75 189 75q73 0 136 -36l39 54l41 -30l-38 -54q88 -76 88 -195q0 -114 -78 -190q-76 -76 -188 -76q-67 0 -129 32l-38 -53l-41 30l37 51q-95 80 -95 206zM116 254q0 -92 63 -152l232 324q-47 27 -99 27q-82 0 -139 -57t-57 -142zM508 254 q0 84 -57 141l-231 -323q41 -23 92 -23q82 0 139 59q57 58 57 146z" />
			<glyph unicode="&#xf9;" horiz-adv-x="588" d="M75 183v320h68v-302q0 -77 23 -113t86 -36q83 0 134 62q52 61 52 148v241h68v-503h-66v75l2 40h-2q-20 -48 -71 -87q-50 -40 -126 -40q-87 0 -127.5 47.5t-40.5 147.5zM323 584h-62l-86 119h79z" />
			<glyph unicode="&#xfa;" horiz-adv-x="588" d="M75 183v320h68v-302q0 -77 23 -113t86 -36q83 0 134 62q52 61 52 148v241h68v-503h-66v75l2 40h-2q-20 -48 -71 -87q-50 -40 -126 -40q-87 0 -127.5 47.5t-40.5 147.5zM320 584h-62l69 119h79z" />
			<glyph unicode="&#xfb;" horiz-adv-x="588" d="M236 584h-66l83 119h75l84 -119h-66l-54 81h-2zM75 183v320h68v-302q0 -77 23 -113t86 -36q83 0 134 62q52 61 52 148v241h68v-503h-66v75l2 40h-2q-20 -48 -71 -87q-50 -40 -126 -40q-87 0 -127.5 47.5t-40.5 147.5z" />
			<glyph unicode="&#xfc;" horiz-adv-x="588" d="M75 183v320h68v-302q0 -77 23 -113t86 -36q83 0 134 62q52 61 52 148v241h68v-503h-66v75l2 40h-2q-20 -48 -71 -87q-50 -40 -126 -40q-87 0 -127.5 47.5t-40.5 147.5zM398 617h-62v86h62v-86zM246 617h-61v86h61v-86z" />
			<glyph unicode="&#xfd;" horiz-adv-x="499" d="M18 -188l-11 8l26 54q29 -23 60 -23q59 0 95 82l31 71l-210 499h75l148 -367l18 -53h2q9 32 17 53l145 367h74l-248 -608q-20 -49 -58.5 -77t-86.5 -28q-45 0 -77 22zM280 584h-62l69 119h79z" />
			<glyph unicode="&#xfe;" horiz-adv-x="589" d="M150 -200h-68v903h68v-243l-1 -41h2l6 9q59 87 163 87q102 0 160 -73q60 -73 60 -190q0 -118 -63 -191t-162 -73q-63 0 -104 28.5t-56 57.5l-5 10h-2q2 -24 2 -44v-240zM148 251q0 -86 43 -144t118 -58q69 0 115 55t46 148q0 89 -44 145t-114 56q-74 0 -119 -51.5 t-45 -150.5z" />
			<glyph unicode="&#xff;" horiz-adv-x="499" d="M18 -188l-11 8l26 54q29 -23 60 -23q59 0 95 82l31 71l-210 499h75l148 -367l18 -53h2q9 32 17 53l145 367h74l-248 -608q-20 -49 -58.5 -77t-86.5 -28q-45 0 -77 22zM358 617h-62v86h62v-86zM206 617h-61v86h61v-86z" />
			<glyph unicode="&#x10a;" horiz-adv-x="728" d="M55 356q0 152 101 256q100 103 252 103q92 0 162 -32q56 -26 81 -49l10 -10l-37 -51q-11 11 -38 27q-20 13 -44 24q-64 27 -132 27q-124 0 -203 -85q-80 -85 -80 -209q0 -128 80 -217q81 -88 205 -88q73 0 131.5 28t86.5 56l10 10l40 -49q-20 -21 -45 -38 q-24 -18 -55 -33q-78 -38 -169 -38q-155 0 -255 106q-101 107 -101 262zM434 786h-65v85h65v-85z" />
			<glyph unicode="&#x10b;" horiz-adv-x="549" d="M47 251q0 116 76 189q76 75 188 75q64 0 110.5 -21.5t66.5 -43.5l7 -7l-35 -51q-3 4 -18 17q-12 11 -51 27q-39 17 -78 17q-85 0 -140 -57q-56 -56 -56 -145q0 -88 57 -145t141 -57q92 0 155 63l6 8l31 -53q-15 -15 -32 -28q-73 -51 -164 -51q-113 0 -189 73 q-75 73 -75 190zM326 618h-65v85h65v-85z" />
			<glyph unicode="&#x120;" horiz-adv-x="758" d="M55 352q0 152 101 258q102 105 253 105q73 0 134 -21q62 -19 89 -40l27 -21l-37 -52q-13 11 -27 19q-15 11 -72 31q-55 20 -111 20q-126 0 -206 -86q-79 -85 -79 -212q0 -131 79 -216t200 -85q59 0 116 26q52 24 80 52l25 25v119h-120v62h186v-336h-64v53l1 30h-2 q-10 -13 -38 -33q-20 -15 -47 -29q-66 -33 -144 -33q-144 0 -245 104q-99 104 -99 260zM431 786h-65v85h65v-85z" />
			<glyph unicode="&#x121;" horiz-adv-x="582" d="M94 -170l26 56q62 -35 136 -35q81 0 128.5 40t47.5 118v46l2 36h-2q-46 -88 -159 -88q-101 0 -163 72q-61 71 -61 186q0 113 59 184q58 70 159 70q69 0 109 -25t53 -50l4 -9h2q-1 4 -1 17v55h66v-491q0 -112 -70 -167q-68 -55 -171 -55q-88 0 -165 40zM284 64 q69 0 109 48.5t40 148.5q0 192 -159 192q-73 0 -114 -50.5t-41 -140.5t45 -144t120 -54zM317 618h-65v85h65v-85z" />
			<glyph unicode="&#x126;" horiz-adv-x="794" d="M195 0h-70v512h-66v54h66v137h70v-137h404v137h70v-137h65v-54h-65v-512h-70v321h-404v-321zM195 512v-129h404v129h-404z" />
			<glyph unicode="&#x127;" horiz-adv-x="593" d="M82 566h-76v51h76v86h68v-86h133v-51h-133v-135l-2 -41h2q18 45 70 85t130 40q88 0 128 -48t40 -147v-320h-68v302q0 77 -23 113t-86 36q-65 0 -115 -40q-52 -41 -68 -103q-8 -29 -8 -67v-241h-68v566z" />
			<glyph unicode="&#x131;" horiz-adv-x="232" d="M150 0h-68v503h68v-503z" />
			<glyph unicode="&#x13f;" horiz-adv-x="518" d="M497 0h-395v703h69v-641h326v-62zM375 332h-77v80h77v-80z" />
			<glyph unicode="&#x140;" horiz-adv-x="299" d="M77 119v584h68v-569q0 -76 56 -76l17 1v-61q-16 -2 -25 -2q-116 0 -116 123zM290 332h-77v80h77v-80z" />
			<glyph unicode="&#x152;" horiz-adv-x="953" d="M55 352q0 153 101 257q102 104 257 104q18 0 63 -5t56 -5h347v-62h-326v-256h266v-62h-266v-261h344v-62h-364q-9 0 -56 -5t-64 -5q-155 0 -257 104q-101 104 -101 258zM413 53q41 0 61 5l9 2v582q-34 8 -70 8q-128 0 -207 -85t-79 -213q0 -129 79 -214t207 -85z" />
			<glyph unicode="&#x153;" horiz-adv-x="1013" d="M46 250q0 117 77 191t187 74q74 0 134 -36t93 -99h2q29 64 85.5 99.5t129.5 35.5q100 0 155 -67q56 -67 56 -165l-2 -35h-386q5 -95 59 -147q55 -52 136 -52q38 0 76.5 14t57.5 31l18 16l32 -52q-9 -9 -24 -20q-19 -13 -64 -31q-47 -19 -99 -19q-77 0 -137.5 36.5 t-91.5 100.5h-2q-32 -64 -92.5 -100.5t-135.5 -36.5q-111 0 -187 73q-77 74 -77 189zM580 304h315q-3 73 -41.5 113.5t-100.5 40.5q-67 0 -114 -41t-59 -113zM116 250q0 -89 56 -145q58 -56 139 -56q83 0 138 57q57 57 57 148q0 88 -57 144q-56 55 -138 55t-139 -57 q-56 -56 -56 -146z" />
			<glyph unicode="&#x160;" horiz-adv-x="538" d="M74 56l-24 22l41 53q15 -15 32 -27q68 -47 152 -50q61 0 100.5 34t39.5 88q0 87 -124 137q-105 44 -141 68q-87 58 -86 145q0 77 62 133t157 56q53 0 101 -17q46 -16 67 -34l20 -17l-34 -58q-6 7 -20 17q-12 9 -53 26q-42 17 -81 17q-65 0 -107 -36q-41 -36 -41 -85 q0 -79 123 -130q33 -13 45 -17.5t43.5 -19t45 -24.5t36 -28t32.5 -36t18 -42.5t8 -52.5q0 -81 -58 -136q-58 -54 -155 -54q-66 0 -120 22q-53 21 -79 46zM309 752h-75l-83 119h66l54 -80h2l54 80h66z" />
			<glyph unicode="&#x161;" horiz-adv-x="443" d="M48 54l-7 7l37 49q3 -4 18 -17q12 -11 51 -27q40 -17 81 -17q44 0 72.5 21.5t28.5 58.5q0 52 -96 88q-30 11 -48 18t-45.5 22t-43 30t-27.5 38.5t-11 50.5q0 64 50 102q49 37 122 37q90 0 150 -49l5 -6l-31 -52l-15 12q-9 8 -42 21q-30 13 -69 13q-44 0 -72 -20t-28 -58 q0 -52 96 -88q39 -14 61.5 -24t53 -29t45.5 -45.5t15 -60.5q0 -61 -48 -102q-48 -39 -124 -39q-64 0 -109.5 21t-69.5 45zM265 584h-75l-83 119h66l54 -80h2l54 80h66z" />
			<glyph unicode="&#x178;" horiz-adv-x="574" d="M322 0h-70v302l-237 401h79l149 -255l43 -84h2q23 50 43 84l149 255h78l-236 -401v-302zM389 785h-62v86h62v-86zM237 785h-61v86h61v-86z" />
			<glyph unicode="&#x17b;" horiz-adv-x="595" d="M544 0h-501v49l363 528l49 64v2q-22 -2 -51 -2h-342v62h479v-49l-363 -528q-27 -39 -44 -56l-6 -8v-2q24 2 52 2h364v-62zM341 786h-65v85h65v-85z" />
			<glyph unicode="&#x17c;" horiz-adv-x="509" d="M465 0h-423v44l281 353l40 46v2q-22 -2 -50 -2h-259v60h401v-45l-281 -352l-41 -46v-2q24 2 51 2h281v-60zM285 618h-65v85h65v-85z" />
			<glyph unicode="&#x17d;" horiz-adv-x="595" d="M544 0h-501v49l363 528l49 64v2q-22 -2 -51 -2h-342v62h479v-49l-363 -528q-27 -39 -44 -56l-6 -8v-2q24 2 52 2h364v-62zM345 752h-75l-83 119h66l54 -80h2l54 80h66z" />
			<glyph unicode="&#x17e;" horiz-adv-x="509" d="M465 0h-423v44l281 353l40 46v2q-22 -2 -50 -2h-259v60h401v-45l-281 -352l-41 -46v-2q24 2 51 2h281v-60zM289 584h-75l-83 119h66l54 -80h2l54 80h66z" />
			<glyph unicode="&#x192;" horiz-adv-x="567" d="M34 -100v60q35 -5 64 -5q36 0 71 21q44 25 52 107l24 281h-89v58h95l10 107q11 116 80 155q53 31 109 31l83 -7v-61q-43 7 -81 7q-18 0 -35 -4.5t-37 -16.5t-34 -39.5t-18 -67.5l-10 -104h126v-58h-131l-25 -284q-7 -92 -56 -137q-60 -53 -133 -49z" />
			<glyph unicode="&#x2c6;" d="M197 752h-66l83 119h75l84 -119h-66l-54 81h-2z" />
			<glyph unicode="&#x2c7;" d="M289 752h-75l-83 119h66l54 -80h2l54 80h66z" />
			<glyph unicode="&#x2d8;" horiz-adv-x="505" d="M252 749q-49 0 -82 29t-33 78v15h55v-13q0 -30 17 -46t43 -16q27 0 44 16t17 46v13h55v-15q0 -49 -33 -78t-83 -29z" />
			<glyph unicode="&#x2d9;" horiz-adv-x="505" d="M285 786h-65v85h65v-85z" />
			<glyph unicode="&#x2da;" horiz-adv-x="505" d="M305 761q-22 -20 -53 -20t-53 20t-22 51t22 51t53 20t53 -20q23 -20 23 -51t-23 -51zM252 779q15 0 24 9.5t9 23.5q0 15 -9 24.5t-24 9.5q-14 0 -23 -9.5t-9 -24.5q0 -14 9 -23.5t23 -9.5z" />
			<glyph unicode="&#x2db;" d="M179 -113q0 35 24 70q25 33 49 49l24 16l50 -14q-1 -1 -4.5 -3.5t-10 -7t-15.5 -11.5q-54 -52 -54 -85q0 -19 14.5 -31.5t31.5 -15.5l16 -3l-15 -56q-13 0 -38 8q-72 22 -72 84z" />
			<glyph unicode="&#x2dc;" d="M151 755h-55q0 117 92 117q25 0 48.5 -18t43 -36t34.5 -18q40 0 40 69h54q0 -117 -92 -117q-25 -1 -49 17.5t-43 36.5t-34 17q-39 0 -39 -68z" />
			<glyph unicode="&#x2dd;" d="M306 752h-60l70 119h77zM177 752h-65l65 119h68z" />
			<glyph unicode="&#x2000;" horiz-adv-x="441" />
			<glyph unicode="&#x2001;" horiz-adv-x="883" />
			<glyph unicode="&#x2002;" horiz-adv-x="441" />
			<glyph unicode="&#x2003;" horiz-adv-x="883" />
			<glyph unicode="&#x2004;" horiz-adv-x="294" />
			<glyph unicode="&#x2005;" horiz-adv-x="220" />
			<glyph unicode="&#x2006;" horiz-adv-x="147" />
			<glyph unicode="&#x2007;" horiz-adv-x="147" />
			<glyph unicode="&#x2008;" horiz-adv-x="110" />
			<glyph unicode="&#x2009;" horiz-adv-x="176" />
			<glyph unicode="&#x200a;" horiz-adv-x="49" />
			<glyph unicode="&#x2010;" horiz-adv-x="492" d="M388 253h-284v62h284v-62z" />
			<glyph unicode="&#x2011;" horiz-adv-x="492" d="M388 253h-284v62h284v-62z" />
			<glyph unicode="&#x2012;" horiz-adv-x="492" d="M388 253h-284v62h284v-62z" />
			<glyph unicode="&#x2013;" horiz-adv-x="708" d="M604 255h-500v58h500v-58z" />
			<glyph unicode="&#x2014;" horiz-adv-x="908" d="M804 255h-700v58h700v-58z" />
			<glyph unicode="&#x2018;" horiz-adv-x="215" d="M128 540h-72l57 172h54z" />
			<glyph unicode="&#x2019;" horiz-adv-x="209" d="M112 541h-55l39 172h72z" />
			<glyph unicode="&#x201a;" horiz-adv-x="238" d="M105 -90h-54l39 172h71z" />
			<glyph unicode="&#x201c;" horiz-adv-x="335" d="M248 540h-72l56 172h55zM128 540h-72l57 172h54z" />
			<glyph unicode="&#x201d;" horiz-adv-x="329" d="M232 541h-55l39 172h72zM112 541h-55l39 172h72z" />
			<glyph unicode="&#x201e;" horiz-adv-x="356" d="M223 -90h-54l39 172h71zM105 -90h-54l39 172h71z" />
			<glyph unicode="&#x2020;" horiz-adv-x="395" d="M229 -50h-67v495h-117v58h117v200h67v-200h121v-58h-121v-495z" />
			<glyph unicode="&#x2021;" horiz-adv-x="433" d="M181 179h-117v58h117v208h-117v58h117v200h67v-200h121v-58h-121v-208h121v-58h-121v-229h-67v229z" />
			<glyph unicode="&#x2022;" horiz-adv-x="401" d="M301 190q-41 -42 -100 -42t-101 42t-42 101t42 101t101 42t100 -42q42 -42 42 -101t-42 -101z" />
			<glyph unicode="&#x2026;" horiz-adv-x="715" d="M631 0h-77v80h77v-80zM396 0h-77v80h77v-80zM161 0h-77v80h77v-80z" />
			<glyph unicode="&#x202f;" horiz-adv-x="176" />
			<glyph unicode="&#x2030;" horiz-adv-x="1063" d="M196 437q-59 0 -99 40q-41 41 -41 99q0 57 41 98t99 41t99 -41q42 -40 42 -98t-41 -99q-40 -40 -100 -40zM134 0h-72l536 703h71zM278 576q0 34 -24 58.5t-58 24.5t-57.5 -24.5t-23.5 -58.5q0 -35 23.5 -59t57.5 -24t58 24t24 59zM730 126q0 58 41 99t99 41t99 -41 q42 -41 42 -99t-42 -98q-40 -40 -99 -40t-99 40q-41 41 -41 98zM394 126q0 58 41 99t99 41t99 -41q42 -41 42 -99t-42 -98q-40 -40 -99 -40t-99 40q-41 41 -41 98zM790 127q0 -35 23 -59t57 -24t58 24t24 59q0 34 -24 58.5t-58 24.5q-33 0 -56.5 -24.5t-23.5 -58.5zM454 127 q0 -35 23 -59t57 -24t58 24t24 59q0 34 -24 58.5t-58 24.5q-33 0 -56.5 -24.5t-23.5 -58.5z" />
			<glyph unicode="&#x2039;" horiz-adv-x="343" d="M287 77h-73l-164 205l164 206h73l-164 -206z" />
			<glyph unicode="&#x203a;" horiz-adv-x="344" d="M130 77h-74l164 205l-164 206h74l164 -206z" />
			<glyph unicode="&#x2044;" horiz-adv-x="158" d="M276 703l-335 -703h-59l336 703h58z" />
			<glyph unicode="&#x205f;" horiz-adv-x="220" />
			<glyph unicode="&#x20ac;" horiz-adv-x="590" d="M103 266h-62v51h55q-6 35 0 81h-55v51h64q30 118 122 192t214 74q47 0 83 -9l12 -3l-17 -65q-39 11 -79 11q-95 0 -165 -55q-71 -56 -96 -145h306l-10 -51h-307q-6 -36 -1 -81h293l-10 -51h-272q24 -95 95 -154q71 -58 169 -58q40 0 78 10l11 4l16 -65q-47 -15 -106 -15 q-125 0 -219 77q-92 79 -119 201z" />
			<glyph unicode="&#x2122;" horiz-adv-x="932" d="M489 265h-56l35 438h52l115 -251l14 -41h2q4 19 14 41l115 251h52l34 -438h-55l-25 297l1 29h-2l-112 -244h-46l-112 244h-2l1 -29zM240 265h-57v386h-156v52h370v-52h-157v-386z" />
			<glyph unicode="&#x221e;" horiz-adv-x="499" d="M250 176q-71 0 -122 51t-51 122q0 72 50 122q52 50 123 50q72 0 122 -50t50 -122q0 -71 -50 -123q-50 -50 -122 -50z" />
			<glyph unicode="&#x2248;" horiz-adv-x="606" d="M91 321l-33 44q69 69 146 69q49 0 107 -35q59 -35 91 -35q60 0 113 56l33 -44q-68 -69 -146 -69q-49 0 -108 35q-58 35 -90 35q-57 0 -113 -56zM91 147l-33 44q69 69 146 69q49 0 107 -35q59 -35 91 -35q59 0 113 56l33 -44q-68 -69 -146 -69q-49 0 -108 35 q-58 35 -90 35q-57 0 -113 -56z" />
			<glyph unicode="&#x2260;" horiz-adv-x="606" d="M168 54l-42 29l62 85h-118v58h159l86 116h-245v58h285l86 117l42 -30l-65 -87h118v-58h-158l-86 -116h244v-58h-284z" />
			<glyph unicode="&#x2264;" horiz-adv-x="606" d="M521 57l-452 202v50l452 202v-67l-367 -159v-2l367 -159v-67zM70 -162v58h451v-58h-451z" />
			<glyph unicode="&#x2265;" horiz-adv-x="606" d="M537 259l-452 -202v67l368 159v2l-368 159v67l452 -202v-50zM85 -162v58h451v-58h-451z" />
			<glyph unicode="&#x25fc;" horiz-adv-x="505" d="M0 505h505v-505h-505v505z" />
			</font>
</defs>
</svg>
