<?xml version="1.0" standalone="no"?>
<!DOCTYPE svg PUBLIC "-//W3C//DTD SVG 1.1//EN" "http://www.w3.org/Graphics/SVG/1.1/DTD/svg11.dtd" >
<svg xmlns="http://www.w3.org/2000/svg" version="1.1">
	<metadata></metadata>
	<defs>
		<font id="museo_sans500" horiz-adv-x="499">
			<font-face units-per-em="1000" ascent="772" descent="-228" />
			<missing-glyph horiz-adv-x="257" />
			<glyph unicode="&#xfb01;" horiz-adv-x="585" d="M509 0h-97v428h-213v-428h-96v428h-63v78h63v17q0 94 48 138q57 52 142 50l37 -3v-83q-14 2 -25 2q-17 0 -32.5 -3.5t-33.5 -13.5t-29 -33t-11 -56v-15h310v-506zM509 607h-98v99h98v-99z" />
			<glyph unicode="&#xfb02;" horiz-adv-x="601" d="M199 0h-96v421h-63v78h63v24q0 94 48 138q57 52 142 50l37 -3v-83q-14 2 -25 2q-17 0 -32.5 -3.5t-33.5 -13.5t-29 -33t-11 -56v-22h120v-78h-120v-421zM406 138v568h97v-551q0 -40 13 -56t41 -16l17 1v-86q-20 -2 -32 -2q-136 0 -136 142z" />
			<glyph horiz-adv-x="0" />
			<glyph horiz-adv-x="333" />
			<glyph unicode=" " horiz-adv-x="257" />
			<glyph unicode="&#x09;" horiz-adv-x="257" />
			<glyph unicode="&#xa0;" horiz-adv-x="257" />
			<glyph unicode="!" horiz-adv-x="318" d="M203 194h-87l-7 512h100zM209 0h-99v97h99v-97z" />
			<glyph unicode="&#x22;" horiz-adv-x="342" d="M279 530h-76v188h76v-188zM139 530h-76v188h76v-188z" />
			<glyph unicode="#" horiz-adv-x="718" d="M222 0h-81l33 191h-130l12 74h131l29 168h-129l12 73h130l35 200h81l-35 -200h155l35 200h81l-35 -200h131l-13 -73h-130l-30 -168h130l-13 -74h-129l-34 -191h-81l33 191h-155zM298 433l-30 -168h155l30 168h-155z" />
			<glyph unicode="$" horiz-adv-x="566" d="M62 73l-8 8l56 75q8 -8 33 -27q70 -49 147 -49q53 0 87.5 28.5t34.5 75.5q0 70 -122 120q-29 12 -44 18.5t-43 20.5t-43.5 25t-36.5 28.5t-31.5 35t-18 40.5t-7.5 49q0 73 51 127q52 55 135 67v94h71v-93q47 -3 90 -19.5t63 -34.5l18 -15l-45 -82q-3 3 -21 17 q-14 10 -54 27q-42 17 -80 17q-56 0 -92 -30t-36 -73q0 -28 19 -50.5t49.5 -38.5t67.5 -31t74 -33.5t67.5 -41.5t49.5 -59t19 -82q0 -77 -51 -132q-50 -54 -138 -65v-92h-71v92q-67 7 -116 32.5t-74 50.5z" />
			<glyph unicode="%" horiz-adv-x="761" d="M48 570q0 60 44 104t107 44t107 -44q45 -44 45 -104q0 -62 -45 -105q-43 -43 -107 -43t-107 43q-44 44 -44 105zM157 0h-94l540 706h94zM273 570q0 31 -21.5 53t-52.5 22t-52.5 -22t-21.5 -53q0 -32 21.5 -53t52.5 -21t52.5 21t21.5 53zM410 136q0 60 44 104 q46 44 108 44q61 0 107 -44q45 -43 45 -104q0 -62 -45 -105q-44 -43 -107 -43q-65 0 -108 43q-44 44 -44 105zM488 136q0 -32 21 -53t53 -21q31 -2 52.5 21.5t21.5 52.5t-22 53q-23 22 -52 22t-52.5 -22t-21.5 -53z" />
			<glyph unicode="&#x26;" horiz-adv-x="684" d="M54 198q0 61 34 112t90 69v2q-10 2 -32 19q-61 46 -61 136q0 86 60 134q61 48 157 48q28 0 73 -8l13 -3l-25 -79q-28 6 -53 6q-55 0 -90 -29.5t-35 -78.5q0 -44 28.5 -77.5t101.5 -33.5h131v96h97v-96h94v-86h-94v-94q0 -117 -65 -182t-179 -65q-109 0 -177 60t-68 150z M155 203q0 -52 40.5 -88t103.5 -36q71 0 109 40t38 120v90h-135q-75 0 -115.5 -33t-40.5 -93z" />
			<glyph unicode="'" horiz-adv-x="203" d="M140 530h-77v188h77v-188z" />
			<glyph unicode="(" horiz-adv-x="302" d="M274 -95h-85q-116 194 -116 435q0 210 116 395h85q-113 -190 -113 -396q0 -228 113 -434z" />
			<glyph unicode=")" horiz-adv-x="302" d="M113 -95h-85q113 206 113 434q0 206 -113 396h85q116 -185 116 -395q0 -241 -116 -435z" />
			<glyph unicode="*" horiz-adv-x="467" d="M233 447l-78 -118l-72 52l89 110v2l-136 37l26 84l133 -50l-7 142h91l-8 -142l134 50l27 -84l-137 -37v-2l88 -110l-71 -52l-77 118h-2z" />
			<glyph unicode="+" horiz-adv-x="683" d="M301 246h-224v78h224v246h82v-246h223v-78h-223v-246h-82v246z" />
			<glyph unicode="," horiz-adv-x="255" d="M104 -101h-77l62 206h99z" />
			<glyph unicode="-" horiz-adv-x="472" d="M382 242h-292v86h292v-86z" />
			<glyph unicode="." horiz-adv-x="254" d="M178 0h-102v103h102v-103z" />
			<glyph unicode="/" horiz-adv-x="404" d="M122 -42h-86l254 786h86z" />
			<glyph unicode="0" horiz-adv-x="625" d="M312 -12q-249 0 -249 366q0 364 249 364q250 0 250 -364q0 -366 -250 -366zM312 79q149 0 149 275q0 273 -149 273q-148 0 -148 -273q0 -275 148 -275z" />
			<glyph unicode="1" horiz-adv-x="489" d="M462 0h-406v86h156v456l1 44h-2q-6 -13 -34 -41l-66 -65l-60 62l169 164h88v-620h154v-86z" />
			<glyph unicode="2" horiz-adv-x="572" d="M515 0h-455q-5 35 -5 54q0 60 25 109q16 32 42.5 61t46 44t59.5 45q5 4 28 20t29.5 20.5t25.5 18.5t25.5 20.5t20.5 20t19 22.5t12.5 22t10 25.5t2.5 25.5q0 52 -35.5 84.5t-91.5 32.5q-48 0 -84.5 -27t-53.5 -54l-5 -9l-73 49q14 25 32 47q20 23 43 40q63 47 148 47 q98 0 160 -56q63 -56 63 -147q0 -47 -18.5 -88t-48.5 -70.5t-66 -56.5t-72.5 -51t-66.5 -48t-48.5 -53.5t-18.5 -61.5h350v-86z" />
			<glyph unicode="3" horiz-adv-x="567" d="M66 60l-26 24l54 75q2 -3 5.5 -6t8.5 -8l8 -8q12 -10 59 -34q45 -21 90 -21q60 0 102 36q42 38 42 93q0 61 -46 95.5t-118 34.5h-49l-23 53l154 181l44 46v2q-21 -3 -60 -3h-239v86h422v-63l-192 -221q83 -9 144 -61q63 -52 63 -146t-67 -161q-68 -66 -173 -66 q-64 0 -121 24q-56 24 -82 48z" />
			<glyph unicode="4" horiz-adv-x="606" d="M373 189h-342v62l326 455h113v-433h96v-84h-96v-189h-97v189zM140 275v-2h233v257l4 70h-2q-18 -35 -35 -58z" />
			<glyph unicode="5" horiz-adv-x="563" d="M56 76l-8 10l55 72q6 -8 26 -27q55 -49 129 -49q65 0 109 40q46 40 46 103q0 64 -46 104q-47 41 -115 41q-59 0 -104 -26l-15 -9l-57 21l35 350h356v-86h-270l-17 -149l-5 -37h2q38 22 91 22q110 0 177 -67q69 -66 69 -163q0 -102 -72 -170q-71 -68 -178 -68 q-124 0 -208 88z" />
			<glyph unicode="6" horiz-adv-x="599" d="M323 -12q-115 0 -190 92q-74 92 -74 241q0 143 76 266q39 61 102 96t140 35q79 0 121 -22l16 -7l-32 -85q-46 23 -101 23q-91 0 -145 -70q-53 -68 -67 -167h2q22 30 65.5 48.5t90.5 18.5q100 0 161 -67q62 -67 62 -166q0 -105 -64 -170q-64 -66 -163 -66zM322 79 q59 0 94.5 40.5t35.5 104.5q0 66 -39.5 107.5t-105.5 41.5q-59 0 -102 -30q-42 -30 -42 -69q0 -72 47 -134q46 -61 112 -61z" />
			<glyph unicode="7" horiz-adv-x="529" d="M188 0h-102l275 556q16 32 35 58l6 7v2q-16 -3 -52 -3h-315v86h472v-68z" />
			<glyph unicode="8" horiz-adv-x="607" d="M57 204q0 75 50 130q38 40 63 58q-79 57 -79 141q0 76 57 130q56 55 163 55q99 0 160 -52q62 -51 62 -137q0 -91 -84 -184q96 -59 96 -150q0 -84 -68 -146q-67 -61 -174 -61t-177 60q-69 62 -69 156zM443 198q-3 29 -18 49t-47 38q-27 16 -41 22l-47 21l-47 22 q-85 -58 -85 -140q0 -59 43 -96t102 -37q58 0 98 34q42 35 42 87zM189 531q0 -22 15 -50q10 -16 43 -38q7 -5 32.5 -18t26.5 -13l34 -14l34 -14q62 62 62 139q0 48 -35 77t-91 29t-88.5 -27.5t-32.5 -70.5z" />
			<glyph unicode="9" horiz-adv-x="599" d="M222 -12q-80 0 -122 22l-15 7l32 86q45 -24 101 -24q91 0 145 69q53 70 67 168h-2q-21 -30 -64.5 -48t-91.5 -18q-100 0 -161 66q-62 67 -62 166q0 105 64 170q64 66 163 66q114 0 189 -92t75 -241q0 -147 -77 -266q-38 -61 -101 -96t-140 -35zM292 333q59 0 101 30 q43 31 43 69q0 71 -47 133t-112 62q-59 0 -94.5 -40.5t-35.5 -104.5q0 -67 39.5 -108t105.5 -41z" />
			<glyph unicode=":" horiz-adv-x="292" d="M197 403h-102v103h102v-103zM197 0h-102v103h102v-103z" />
			<glyph unicode=";" horiz-adv-x="293" d="M125 -101h-78l53 206h100zM203 403h-102v103h102v-103z" />
			<glyph unicode="&#x3c;" horiz-adv-x="558" d="M499 44l-466 208v66l466 208v-89l-358 -151v-2l358 -151v-89z" />
			<glyph unicode="=" horiz-adv-x="669" d="M573 340h-477v78h477v-78zM573 151h-477v78h477v-78z" />
			<glyph unicode="&#x3e;" horiz-adv-x="558" d="M525 252l-466 -208v89l357 151v2l-357 151v89l466 -208v-66z" />
			<glyph unicode="?" horiz-adv-x="489" d="M239 194h-95v47q0 41 17.5 76t42.5 59t50 46t42.5 49.5t17.5 58.5q0 42 -32.5 70.5t-81.5 28.5q-52 0 -100 -31l-14 -11l-54 69q3 3 21 17q15 11 60 29q47 18 94 18q87 0 148 -51t61 -132q0 -45 -18 -82t-44 -61.5t-52.5 -47t-44.5 -50.5t-18 -61v-41zM241 0h-99v97h99 v-97z" />
			<glyph unicode="@" horiz-adv-x="821" d="M424 611q136 0 197 -58q63 -57 63 -145v-283h72v-73h-273q-91 0 -149 55t-58 134q0 77 57 132q58 55 150 55h108q-2 46 -45.5 74.5t-116.5 28.5q-114 0 -194 -86q-79 -85 -79 -204q0 -122 79 -204q80 -83 205 -83v-79q-167 0 -274 106q-107 105 -107 260q0 156 106 262 q107 108 259 108zM374 242q0 -49 33 -83t83 -34h101v236h-99q-51 0 -84.5 -34t-33.5 -85z" />
			<glyph unicode="A" horiz-adv-x="628" d="M620 0h-103l-71 203h-266l-70 -203h-102l254 706h104zM342 509l-27 100h-2q-18 -69 -28 -100l-79 -224h214z" />
			<glyph unicode="B" horiz-adv-x="634" d="M349 0h-253v706h247q92 0 148.5 -48.5t56.5 -131.5q0 -51 -23.5 -91t-64.5 -61v-2q53 -16 84.5 -63t31.5 -108q0 -96 -65 -149q-64 -52 -162 -52zM195 620v-211h148q47 0 75.5 29.5t28.5 77.5t-28 76t-78 28h-146zM195 327v-241h159q56 0 88.5 32.5t32.5 87.5 q0 54 -33.5 87.5t-88.5 33.5h-158z" />
			<glyph unicode="C" horiz-adv-x="722" d="M48 357q0 153 102 257q104 104 257 104q100 0 164 -33q57 -25 83 -51l10 -9l-49 -74q-8 8 -26 21q-15 12 -71 34q-51 22 -107 22q-115 0 -189 -78q-72 -76 -72 -192t73 -198q73 -81 189 -81q58 0 113 23q52 21 80 46l25 23l53 -71q-10 -14 -46 -39q-23 -17 -56 -34 q-76 -39 -172 -39q-157 0 -259 106t-102 263z" />
			<glyph unicode="D" horiz-adv-x="740" d="M330 0h-234v706h234q164 0 261 -94q97 -93 97 -258q0 -166 -97 -260t-261 -94zM195 620v-534h128q122 0 192.5 70.5t70.5 197.5q0 126 -70.5 196t-192.5 70h-128z" />
			<glyph unicode="E" horiz-adv-x="573" d="M523 0h-427v706h410v-86h-311v-221h253v-86h-253v-227h328v-86z" />
			<glyph unicode="F" horiz-adv-x="521" d="M195 0h-99v706h389v-86h-290v-232h247v-86h-247v-302z" />
			<glyph unicode="G" horiz-adv-x="760" d="M49 354q0 155 103 259q103 105 257 105q87 0 152.5 -25t94.5 -51l10 -9l-50 -74q-12 10 -26 19q-16 12 -68 31q-51 19 -105 19q-121 0 -194 -78q-72 -76 -72 -194q0 -121 74 -200q74 -77 186 -77q56 0 104 22q53 24 73 44l23 22v102h-115v86h205v-355h-87v44l1 30h-2 q-15 -15 -36 -30q-22 -16 -44 -26q-62 -30 -137 -30q-146 0 -246 103q-101 104 -101 263z" />
			<glyph unicode="H" horiz-adv-x="756" d="M195 0h-99v706h99v-310h366v310h99v-706h-99v310h-366v-310z" />
			<glyph unicode="I" horiz-adv-x="291" d="M195 0h-99v706h99v-706z" />
			<glyph unicode="J" horiz-adv-x="537" d="M30 203v35h98v-30q0 -64 31 -96.5t81 -32.5t80 31t30 94v416h-178v86h277v-503q0 -107 -62 -161q-61 -54 -148 -54t-148 54q-61 55 -61 161z" />
			<glyph unicode="K" horiz-adv-x="623" d="M195 0h-99v706h99v-297h105l178 297h109l-205 -335v-2l218 -369h-112l-188 324h-105v-324z" />
			<glyph unicode="L" horiz-adv-x="529" d="M511 0h-415v706h99v-620h316v-86z" />
			<glyph unicode="M" horiz-adv-x="866" d="M173 0h-99l57 706h104l162 -382l35 -95h2q25 72 35 95l162 382h104l57 -706h-98l-35 445l-1 104h-2q-20 -62 -38 -104l-141 -318h-88l-140 318l-38 106h-2q1 -57 -2 -106z" />
			<glyph unicode="N" horiz-adv-x="757" d="M195 0h-99v706h98l314 -459q23 -32 50 -85l9 -17h2q-7 59 -7 102v459h99v-706h-97l-315 458q-21 29 -50 86l-9 17h-2q7 -59 7 -103v-458z" />
			<glyph unicode="O" horiz-adv-x="821" d="M48 358q0 153 105 256q106 104 258 104q153 0 257 -104q105 -103 105 -256q0 -156 -105 -263q-104 -107 -257 -107t-258 107t-105 263zM150 358q0 -119 76 -199q77 -80 185 -80q109 0 184 80q76 80 76 199q0 116 -76 192q-75 78 -184 78t-185 -78q-76 -76 -76 -192z" />
			<glyph unicode="P" horiz-adv-x="607" d="M195 0h-99v706h258q99 0 160 -61q62 -60 62 -160q0 -101 -63 -162q-62 -62 -159 -62h-159v-261zM195 620v-273h143q64 0 100.5 37t36.5 101q0 63 -36.5 99t-99.5 36h-144z" />
			<glyph unicode="Q" horiz-adv-x="833" d="M49 357q0 153 104 257q106 104 258 104q154 0 258 -104q105 -103 105 -257q0 -132 -83 -233l84 -80l-58 -62l-82 82q-94 -76 -224 -76q-153 0 -258 107q-104 107 -104 262zM151 357q0 -119 75 -198q75 -80 185 -80q89 0 153 52l-83 81l58 62l81 -82q52 71 52 165 q0 117 -75 193q-75 78 -186 78q-110 0 -185 -78q-75 -76 -75 -193z" />
			<glyph unicode="R" horiz-adv-x="641" d="M195 0h-99v706h216q90 0 132 -16q55 -20 87 -71t32 -120q0 -68 -34.5 -120t-92.5 -71v-2q6 -8 21 -32l150 -274h-112l-149 281h-151v-281zM195 620v-253h142q58 0 91.5 34.5t33.5 93.5q0 77 -56 109q-29 16 -97 16h-114z" />
			<glyph unicode="S" horiz-adv-x="546" d="M52 72l-10 9l56 75q8 -8 33 -27q70 -49 147 -49q53 0 87.5 28.5t34.5 75.5q0 41 -35 71.5t-85.5 51.5t-101 45t-85.5 66.5t-35 102.5q0 83 64 140q65 57 164 57q58 0 108 -18t71 -36l21 -17l-45 -82q-3 3 -21 17q-14 10 -54 27q-42 17 -80 17q-54 0 -91 -30t-37 -73 q0 -68 120 -116q38 -14 62 -24.5t58 -30.5t54 -41t34.5 -53.5t13.5 -70.5q0 -85 -61 -142t-163 -57q-78 0 -138 28t-86 56z" />
			<glyph unicode="T" horiz-adv-x="593" d="M346 0h-99v620h-242v86h583v-86h-242v-620z" />
			<glyph unicode="U" horiz-adv-x="728" d="M86 250v456h99v-456q0 -80 48 -125.5t130 -45.5q84 0 132 46t48 127v454h99v-456q0 -116 -77 -190q-77 -72 -201 -72t-201 72q-77 74 -77 190z" />
			<glyph unicode="V" horiz-adv-x="632" d="M366 0h-99l-261 706h107l175 -499l27 -97h2q14 61 27 97l177 499h105z" />
			<glyph unicode="W" horiz-adv-x="948" d="M290 188l138 518h88l138 -518l15 -75h2q3 40 13 75l130 518h102l-185 -706h-115l-122 458l-21 100h-2q-9 -54 -21 -100l-122 -458h-115l-180 706h102l125 -518l13 -75h2q5 36 15 75z" />
			<glyph unicode="X" horiz-adv-x="612" d="M133 0h-111l223 364l-209 342h114l111 -191l45 -84h2q16 38 43 84l111 191h114l-209 -342l223 -364h-112l-128 217l-45 81h-2q-19 -42 -42 -81z" />
			<glyph unicode="Y" horiz-adv-x="588" d="M344 0h-99v299l-237 407h112l131 -232l43 -89h2q21 49 43 89l129 232h112l-236 -407v-299z" />
			<glyph unicode="Z" horiz-adv-x="607" d="M559 0h-518v66l340 490q15 23 44 58l7 7v2q-20 -3 -53 -3h-320v86h496v-65l-340 -491q-27 -39 -44 -56l-7 -8v-2q26 2 53 2h342v-86z" />
			<glyph unicode="[" horiz-adv-x="301" d="M266 -95h-165v830h165v-73h-80v-683h80v-74z" />
			<glyph unicode="\" horiz-adv-x="404" d="M368 -42h-86l-254 786h86z" />
			<glyph unicode="]" horiz-adv-x="302" d="M35 -95v74h81v683h-81v73h166v-830h-166z" />
			<glyph unicode="^" horiz-adv-x="613" d="M157 247h-88l200 459h63l199 -459h-87l-144 352z" />
			<glyph unicode="_" horiz-adv-x="594" d="M28 -78v78h538v-78h-538z" />
			<glyph unicode="`" d="M338 755h-82l-95 127h104z" />
			<glyph unicode="a" horiz-adv-x="528" d="M35 142q0 174 305 174h22v9q0 111 -111 111q-33 0 -68 -11t-55 -25l-18 -13l-40 71q3 3 23 17q14 9 65 26t101 17q96 0 148 -51t52 -147v-320h-90v48l2 40h-2q-16 -26 -23 -35q-49 -65 -139 -65q-69 0 -121 41q-51 41 -51 113zM133 147q0 -34 25.5 -57.5t69.5 -23.5 q58 0 96 50q39 51 39 111v16h-25q-205 0 -205 -96z" />
			<glyph unicode="b" horiz-adv-x="600" d="M168 0h-92v706h97v-231l-2 -43h2q21 28 23 30q45 53 139 56q101 0 161 -73q61 -73 61 -192q0 -118 -65 -192q-64 -73 -165 -73q-58 0 -98 26t-55 52l-6 9h-2q2 -22 2 -38v-37zM170 251q0 -74 37 -127q38 -53 106 -53q62 0 104 48q42 50 42 133q0 81 -39.5 131t-103.5 50 q-65 0 -105.5 -47t-40.5 -135z" />
			<glyph unicode="c" horiz-adv-x="547" d="M40 253q0 113 76 189t195 76q58 0 103 -19q50 -19 68 -37l19 -18l-46 -68l-18 16q-9 9 -48 26q-35 16 -74 16q-77 0 -126 -51q-50 -52 -50 -129t50 -130q51 -52 129 -52q39 0 78.5 16t59.5 35l18 17l39 -71q-12 -12 -33 -28q-67 -50 -169 -53q-119 0 -195 75t-76 190z " />
			<glyph unicode="d" horiz-adv-x="601" d="M43 253q0 121 64 192q64 73 165 73q60 0 98 -23.5t54 -48.5l4 -8h2q-2 20 -2 34v234h97v-706h-92v48l1 34h-2q-11 -19 -23 -33q-50 -61 -143 -61q-102 0 -163 73q-60 73 -60 192zM142 253q0 -81 39.5 -131t103.5 -50q65 0 105.5 47t40.5 135q0 73 -38 126q-37 54 -105 54 q-62 0 -104 -49q-42 -48 -42 -132z" />
			<glyph unicode="e" horiz-adv-x="555" d="M41 253q0 118 71 192q72 73 182 73q103 0 161 -67t58 -170l-3 -42h-369q5 -81 53 -124q49 -43 121 -43q36 0 73.5 14t58.5 30l18 15l40 -71q-9 -9 -24 -20q-19 -13 -67 -32q-52 -20 -105 -20q-118 0 -193 75q-75 77 -75 190zM144 312h270q-2 61 -35.5 95t-86.5 34 q-58 0 -98 -34.5t-50 -94.5z" />
			<glyph unicode="f" horiz-adv-x="336" d="M199 0h-96v421h-63v78h63v24q0 94 48 138q57 52 142 50l37 -3v-83q-14 2 -25 2q-17 0 -32.5 -3.5t-33.5 -13.5t-29 -33t-11 -56v-22h120v-78h-120v-421z" />
			<glyph unicode="g" horiz-adv-x="593" d="M89 -168l32 76q62 -34 139 -34q75 0 117.5 35.5t42.5 106.5v37l1 32h-2q-46 -79 -150 -79t-165 73t-61 186q0 111 59 182t162 71q63 0 103 -23t51 -45l5 -7h2q-1 5 -1 16v47h93v-485q0 -60 -21.5 -106t-58.5 -72.5t-81 -39.5t-94 -13q-90 0 -173 42zM288 90q62 0 98 42.5 t36 131.5q0 170 -143 170q-65 0 -101.5 -44.5t-36.5 -122.5q0 -81 39.5 -129t107.5 -48z" />
			<glyph unicode="h" horiz-adv-x="603" d="M173 0h-97v706h97v-259l-2 -42h2q19 43 69 78t118 35q174 0 174 -194v-324h-97v302q0 64 -21 95.5t-75 31.5q-56 0 -100 -35t-60 -90q-8 -29 -8 -67v-237z" />
			<glyph unicode="i" horiz-adv-x="249" d="M173 607h-98v99h98v-99zM173 0h-97v506h97v-506z" />
			<glyph unicode="j" horiz-adv-x="248" d="M173 607h-98v99h98v-99zM76 -11v517h96v-523q0 -58 -20 -99t-54 -59q-57 -31 -119 -31l-34 2v83q6 -1 22 -1q17 0 33 4t34.5 14t30 34t11.5 59z" />
			<glyph unicode="k" horiz-adv-x="526" d="M173 0h-97v706h97v-386h71l138 186h110l-168 -223v-2l187 -281h-113l-152 238h-73v-238z" />
			<glyph unicode="l" horiz-adv-x="265" d="M70 138v568h97v-551q0 -40 13 -56t41 -16l17 1v-86q-20 -2 -32 -2q-136 0 -136 142z" />
			<glyph unicode="m" horiz-adv-x="914" d="M173 0h-97v506h94v-67l-2 -37h2q20 47 68 81q50 35 106 35q127 0 152 -115h2q23 49 71 81q49 34 109 34q167 0 167 -194v-324h-97v303q0 65 -19.5 96t-70.5 31q-50 0 -88.5 -36.5t-53.5 -92.5q-7 -27 -7 -70v-231h-97v303q0 65 -19 96t-69 31q-52 0 -91 -37t-54 -96 q-6 -24 -6 -66v-231z" />
			<glyph unicode="n" horiz-adv-x="603" d="M173 0h-97v506h94v-67l-2 -37h2q19 42 68 79q47 37 122 37q174 0 174 -194v-324h-97v302q0 64 -21 95.5t-75 31.5q-57 0 -100.5 -34.5t-59.5 -89.5q-8 -29 -8 -68v-237z" />
			<glyph unicode="o" horiz-adv-x="624" d="M118 64q-79 76 -79 190t79 189q80 75 194 75t194 -75q79 -75 79 -189q0 -113 -80 -190q-79 -76 -193 -76q-115 0 -194 76zM312 72q74 0 123 51q51 52 51 131q0 78 -51 129q-49 51 -123 51q-72 0 -123 -51t-51 -129t51 -130t123 -52z" />
			<glyph unicode="p" horiz-adv-x="600" d="M173 -200h-97v706h89v-43l-2 -37h2q12 20 23 32q58 60 147 60q101 0 161 -73q61 -73 61 -192q0 -118 -65 -192q-64 -73 -164 -73q-57 0 -96 24.5t-54 49.5l-5 9h-2q2 -24 2 -44v-227zM170 251q0 -72 38 -127q39 -53 105 -53q62 0 104 48q42 50 42 133q0 81 -39.5 131 t-103.5 50q-65 0 -105.5 -47t-40.5 -135z" />
			<glyph unicode="q" horiz-adv-x="601" d="M43 253q0 121 64 192q64 73 165 73q103 -1 155 -76l5 -9h2q-1 10 -1 35v38h92v-706h-97v231l2 44h-2q-9 -16 -23 -30q-48 -57 -139 -57q-102 0 -163 73q-60 73 -60 192zM142 253q0 -81 39.5 -131t103.5 -50q65 0 105.5 47t40.5 135q0 73 -38 126q-37 54 -105 54 q-62 0 -104 -49q-42 -48 -42 -132z" />
			<glyph unicode="r" horiz-adv-x="375" d="M173 0h-97v506h94v-88l-2 -38h2q18 59 61 95.5t99 36.5l25 -2v-96q-13 3 -28 3q-47 0 -86 -32t-56 -87q-12 -39 -12 -91v-207z" />
			<glyph unicode="s" horiz-adv-x="448" d="M56 44l-21 18l47 69q3 -4 18 -17q13 -10 50 -26q36 -16 77 -16q35 0 59.5 17.5t24.5 45.5q0 43 -92 77q-25 10 -33 13.5t-31.5 14t-33 18t-26.5 20.5t-24.5 26t-13.5 31.5t-6 38.5q0 66 51.5 105t131.5 39q46 0 88 -13t59 -29l16 -14l-39 -73l-15 12q-10 8 -42 20 q-30 13 -68 13q-37 0 -60 -16t-23 -46q0 -40 92 -76q37 -14 58.5 -24t51 -29t44 -46t14.5 -62q0 -64 -51 -105.5t-132 -41.5q-55 0 -103 18q-51 21 -68 38z" />
			<glyph unicode="t" horiz-adv-x="358" d="M97 185v236h-66v78h69v146h94v-146h122v-78h-122v-225q0 -36 11.5 -60.5t30 -35t34 -14.5t32.5 -4l23 2v-86q-18 -2 -34 -2q-54 0 -96 18q-98 42 -98 171z" />
			<glyph unicode="u" horiz-adv-x="598" d="M69 182v324h97v-302q0 -65 20.5 -95.5t74.5 -30.5q74 0 119 56t45 135v237h97v-506h-94v67l2 37h-2q-20 -44 -69 -80t-117 -36q-173 0 -173 194z" />
			<glyph unicode="v" horiz-adv-x="502" d="M308 0h-112l-189 506h103l123 -342q3 -9 8.5 -32t6.5 -26l2 -11h2l2 11q12 46 16 58l123 342h102z" />
			<glyph unicode="w" horiz-adv-x="814" d="M288 0h-108l-163 506h103l105 -355q10 -38 11 -47l2 -7h2q3 21 13 54l110 354h89l109 -354l14 -54h2q5 29 12 54l106 355h102l-163 -506h-107l-105 325l-14 55h-2q-5 -26 -14 -55z" />
			<glyph unicode="x" horiz-adv-x="508" d="M270 169l-15 28h-2q-7 -15 -15 -28l-106 -169h-110l172 260l-163 246h111l94 -154l17 -30h2l17 30l94 154h111l-163 -246l172 -260h-110z" />
			<glyph unicode="y" horiz-adv-x="510" d="M17 -186l-12 7l34 74q29 -21 59 -21q59 0 91 74l25 58l-212 500h109l127 -331l19 -61h2q7 31 17 60l123 332h105l-237 -597q-23 -57 -66.5 -88t-97.5 -31q-51 0 -86 24z" />
			<glyph unicode="z" horiz-adv-x="517" d="M476 0h-437v56l255 320l42 47v2q-22 -2 -49 -2h-237v83h417v-56l-255 -321l-43 -46v-2q22 2 50 2h257v-83z" />
			<glyph unicode="{" horiz-adv-x="350" d="M134 77v96q0 53 -25.5 79t-50.5 28l-9 2v86q3 0 9 1t20.5 8t26 18t20.5 33t9 51v84q0 87 42 129q51 47 120 45l23 -1v-74h-14q-25 0 -52 -17q-34 -20 -34 -88v-103q0 -51 -24 -81.5t-49 -42.5l-8 -3v-2l4 -1q4 -2 11.5 -6.5t16 -10.5t17.5 -16.5t16 -23t11.5 -30.5 t4.5 -39v-115q0 -68 34 -88q27 -17 52 -17h14v-74q-12 -2 -23 -2q-43 0 -78 16q-84 38 -84 159z" />
			<glyph unicode="|" horiz-adv-x="283" d="M184 -159h-85v951h85v-951z" />
			<glyph unicode="}" horiz-adv-x="350" d="M31 -96v74h14q25 0 51 17q35 20 35 88v115q0 42 19 75t42 43l20 9v2l-4 1q-4 2 -11.5 6.5t-16 11t-17.5 17t-16 23t-11.5 30.5t-4.5 38v103q0 68 -35 88q-26 17 -51 17h-14v74q6 1 23 1q43 0 77 -16q85 -38 85 -158v-84q0 -53 26 -80t50 -29l9 -2v-86q-3 0 -9 -1 t-20.5 -8t-26 -17.5t-20.5 -32t-9 -50.5v-96q0 -89 -43 -130q-49 -47 -119 -45z" />
			<glyph unicode="~" horiz-adv-x="608" d="M146 204h-79q0 84 36 126.5t104 42.5q66 0 107 -49t84 -49q34 0 50.5 26.5t16.5 67.5h79q0 -169 -139 -169q-67 0 -107 48q-39 49 -85 49q-33 0 -50 -26.5t-17 -66.5z" />
			<glyph unicode="&#xa1;" horiz-adv-x="289" d="M193 409h-99v97h99v-97zM194 -200h-100l7 512h87z" />
			<glyph unicode="&#xa2;" horiz-adv-x="576" d="M335 -13h-71v86q-97 13 -154 91q-57 80 -57 189q0 111 57 189q56 78 154 92v84h71v-84q132 -20 188 -155l-88 -34q-43 99 -133 99q-69 0 -109.5 -53t-40.5 -138q0 -87 39.5 -138.5t110.5 -51.5q90 0 133 99l88 -35q-29 -64 -77 -106t-111 -48v-86z" />
			<glyph unicode="&#xa3;" horiz-adv-x="591" d="M117 319h-44v70h44v136q0 83 61 138t156 55q41 0 83 -15t65 -33l19 -16l-57 -69q-47 43 -109 43q-53 0 -85.5 -30t-32.5 -77v-132h184v-70h-184v-233h325v-86h-486v86h61v233z" />
			<glyph unicode="&#xa5;" horiz-adv-x="607" d="M226 347h-136v63h103l-165 296h113l118 -220l43 -102h2q23 60 43 102l119 220h113l-166 -296h102v-63h-135l-27 -48v-37h162v-63h-162v-199h-100v199h-163v63h163v37z" />
			<glyph unicode="&#xa7;" horiz-adv-x="442" d="M219 111h-80l-70 390q-6 23 -6 46q0 76 51.5 123.5t137.5 47.5q35 0 71 -12t54 -26l16 -13l-46 -64q-40 34 -95 34q-48 0 -77.5 -26.5t-29.5 -74.5q0 -18 6 -40zM64 -24l-16 13l44 67q40 -37 97 -37q47 0 76.5 28t29.5 77q0 20 -6 45l-66 376h79l70 -390q5 -30 5 -45 q0 -76 -51 -124t-137 -48q-36 0 -71.5 12t-53.5 26z" />
			<glyph unicode="&#xa8;" d="M373 781h-80v101h80v-101zM206 781h-80v101h80v-101z" />
			<glyph unicode="&#xa9;" horiz-adv-x="821" d="M409 718q149 0 253 -107q105 -107 105 -258q0 -153 -105 -259q-103 -106 -253 -106q-149 0 -252 106t-103 259q0 152 103 258q104 107 252 107zM409 56q120 0 203 86q82 85 82 211t-82 211q-83 86 -203 86q-118 0 -201 -86q-81 -86 -81 -211t81 -211q83 -86 201 -86z M219 352q0 82 54 141q56 59 143 59q59 0 99.5 -29t58.5 -60l5 -10l-61 -33l-12 17q-9 12 -33 28q-25 18 -54 18q-56 0 -90 -38t-34 -93q0 -57 33.5 -94t90.5 -37q27 0 52.5 15t36.5 32l10 16l61 -33q-11 -18 -25 -35q-53 -64 -138 -64q-88 0 -143 58q-54 58 -54 142z" />
			<glyph unicode="&#xaa;" horiz-adv-x="422" d="M182 382q-45 0 -76.5 26.5t-31.5 70.5q0 110 188 110h10v6q0 63 -64 63q-37 0 -72 -21l-11 -7l-29 49q44 37 121 37q62 0 94.5 -32.5t32.5 -93.5v-201h-68v46h-2q-4 -8 -10 -15q-8 -12 -32 -25t-50 -13zM197 441q32 0 53.5 27t21.5 62v8h-12q-114 0 -114 -54 q0 -19 14 -31t37 -12zM348 265h-275v57h275v-57z" />
			<glyph unicode="&#xab;" horiz-adv-x="556" d="M409 77l-164 205l164 206h97l-164 -206l164 -205h-97zM305 77h-97l-164 205l164 206h97l-164 -206z" />
			<glyph unicode="&#xac;" horiz-adv-x="614" d="M456 340h-396v78h477v-267h-81v189z" />
			<glyph unicode="&#xad;" horiz-adv-x="472" d="M382 242h-292v86h292v-86z" />
			<glyph unicode="&#xae;" horiz-adv-x="821" d="M409 718q149 0 253 -107q105 -107 105 -258q0 -153 -105 -259q-103 -106 -253 -106q-149 0 -252 106t-103 259q0 152 103 258q104 107 252 107zM409 56q120 0 203 86q82 85 82 211t-82 211q-83 86 -203 86q-118 0 -201 -86q-81 -86 -81 -211t81 -211q83 -86 201 -86z M358 166h-71v377h145q54 0 86.5 -31.5t32.5 -83.5q0 -38 -20 -65.5t-49 -34.5v-2q3 -3 13 -21l72 -139h-78l-70 146h-61v-146zM358 489v-125h60q28 0 44.5 17t16.5 47q0 29 -16.5 45t-44.5 16h-60z" />
			<glyph unicode="&#xaf;" d="M377 784h-255v70h255v-70z" />
			<glyph unicode="&#xb0;" horiz-adv-x="389" d="M43 570q0 60 44 104t107 44t107 -44q45 -44 45 -104q0 -62 -45 -105q-43 -43 -107 -43t-107 43q-44 44 -44 105zM141 517q22 -21 53 -21t52 21q22 22 22 53t-22 53q-21 22 -52 22t-53 -22q-21 -22 -21 -53t21 -53z" />
			<glyph unicode="&#xb1;" horiz-adv-x="681" d="M300 246h-224v78h224v246h82v-246h223v-78h-223v-246h-82v246zM92 -173v78h497v-78h-497z" />
			<glyph unicode="&#xb4;" d="M242 755h-81l73 127h104z" />
			<glyph unicode="&#xb5;" horiz-adv-x="619" d="M169 -200h-86v706h97v-302q0 -64 21 -95t73 -31q75 0 120 56t45 135v237h97v-506h-94v69l2 35h-3q-6 -15 -26 -40q-56 -76 -160 -76q-59 0 -83 24l-8 7h-2q7 -46 7 -78v-141z" />
			<glyph unicode="&#xb6;" horiz-adv-x="590" d="M355 -50h-75v291q-97 0 -167 67t-70 166q0 98 69 165q70 67 167 67h272v-86h-196v-670zM491 -50h-74v613h74v-613z" />
			<glyph unicode="&#xb7;" horiz-adv-x="275" d="M187 239h-99v103h99v-103z" />
			<glyph unicode="&#xb8;" d="M190 -88l29 111l49 -10v-8l-12 -55q33 -4 52.5 -23.5t19.5 -49.5q0 -41 -28.5 -62.5t-73.5 -21.5q-35 0 -48 5l-7 2v58q18 -7 42 -7q48 0 48 31t-53 31z" />
			<glyph unicode="&#xba;" horiz-adv-x="467" d="M62 552q0 72 49 118q50 47 121 47q72 0 122 -47t50 -118q0 -73 -50 -121q-50 -47 -121 -47q-72 0 -122 47q-49 48 -49 121zM233 448q42 0 70 29.5t28 74.5q0 44 -28 72.5t-70 28.5t-70.5 -28.5t-28.5 -72.5q0 -45 28.5 -74.5t70.5 -29.5zM390 265h-312v57h312v-57z" />
			<glyph unicode="&#xbb;" horiz-adv-x="557" d="M349 77h-97l164 205l-164 206h97l164 -206zM147 77h-97l164 205l-164 206h97l164 -206z" />
			<glyph unicode="&#xbf;" horiz-adv-x="450" d="M313 409h-99v97h99v-97zM39 -28q0 86 62 143q6 6 37.5 34t41.5 40t23 36.5t13 49.5v37h94v-43q0 -78 -60 -136q-7 -7 -28.5 -26t-31 -29.5t-23.5 -27.5t-20 -34t-6 -36q0 -42 32.5 -71t81.5 -29q52 0 99 32l15 11l53 -69q-7 -7 -30 -22q-66 -42 -144 -42q-86 0 -148 51 q-61 49 -61 131z" />
			<glyph unicode="&#xc0;" horiz-adv-x="628" d="M620 0h-103l-71 203h-266l-70 -203h-102l254 706h104zM342 509l-27 100h-2q-18 -69 -28 -100l-79 -224h214zM357 755h-82l-95 127h104z" />
			<glyph unicode="&#xc1;" horiz-adv-x="628" d="M620 0h-103l-71 203h-266l-70 -203h-102l254 706h104zM342 509l-27 100h-2q-18 -69 -28 -100l-79 -224h214zM351 755h-81l73 127h104z" />
			<glyph unicode="&#xc2;" horiz-adv-x="628" d="M620 0h-103l-71 203h-266l-70 -203h-102l254 706h104zM342 509l-27 100h-2q-18 -69 -28 -100l-79 -224h214zM260 755h-85l88 127h101l88 -127h-85l-53 80h-2z" />
			<glyph unicode="&#xc3;" horiz-adv-x="628" d="M620 0h-103l-71 203h-266l-70 -203h-102l254 706h104zM342 509l-27 100h-2q-18 -69 -28 -100l-79 -224h214zM216 756h-70q0 127 102 127q32 0 71.5 -34t54.5 -34q19 0 29 18.5t10 46.5h70q0 -127 -102 -127q-25 0 -49.5 17t-44 34t-32.5 17q-39 0 -39 -65z" />
			<glyph unicode="&#xc4;" horiz-adv-x="628" d="M620 0h-103l-71 203h-266l-70 -203h-102l254 706h104zM342 509l-27 100h-2q-18 -69 -28 -100l-79 -224h214zM438 781h-80v101h80v-101zM271 781h-80v101h80v-101z" />
			<glyph unicode="&#xc5;" horiz-adv-x="628" d="M620 0h-103l-71 203h-266l-70 -203h-102l254 706h104zM342 509l-27 100h-2q-18 -69 -28 -100l-79 -224h214zM229 817q0 33 24.5 54t60.5 21t60.5 -21t24.5 -54q0 -32 -24.5 -53t-60.5 -21t-60.5 21t-24.5 53zM314 784q14 0 23.5 9.5t9.5 23.5q0 16 -9.5 25.5t-23.5 9.5 q-15 0 -24 -9.5t-9 -25.5q0 -14 9 -23.5t24 -9.5z" />
			<glyph unicode="&#xc6;" horiz-adv-x="878" d="M107 0h-103l292 706h516v-86h-312v-221h254v-86h-254v-227h329v-86h-427v314h-169zM402 620h-46l-90 -224h136v224z" />
			<glyph unicode="&#xc7;" horiz-adv-x="724" d="M50 357q0 153 102 257q104 104 257 104q100 0 164 -33q57 -25 83 -51l10 -9l-49 -74q-8 8 -26 21q-15 12 -71 34q-51 22 -107 22q-115 0 -189 -78q-72 -76 -72 -192t73 -198q73 -81 189 -81q58 0 113 23q52 21 80 46l25 23l53 -71q-21 -21 -43 -37q-28 -20 -53 -33 q-73 -38 -163 -42l-8 -38q33 -4 52.5 -23.5t19.5 -49.5q0 -41 -28.5 -62.5t-73.5 -21.5q-35 0 -48 5l-7 2v58q18 -7 42 -7q48 0 48 31t-53 31l-18 -1l20 78q-143 14 -232 116q-90 104 -90 251z" />
			<glyph unicode="&#xc8;" horiz-adv-x="573" d="M523 0h-427v706h410v-86h-311v-221h253v-86h-253v-227h328v-86zM355 755h-82l-95 127h104z" />
			<glyph unicode="&#xc9;" horiz-adv-x="573" d="M523 0h-427v706h410v-86h-311v-221h253v-86h-253v-227h328v-86zM350 755h-81l73 127h104z" />
			<glyph unicode="&#xca;" horiz-adv-x="573" d="M259 755h-85l88 127h101l88 -127h-85l-53 80h-2zM523 0h-427v706h410v-86h-311v-221h253v-86h-253v-227h328v-86z" />
			<glyph unicode="&#xcb;" horiz-adv-x="573" d="M523 0h-427v706h410v-86h-311v-221h253v-86h-253v-227h328v-86zM436 781h-80v101h80v-101zM269 781h-80v101h80v-101z" />
			<glyph unicode="&#xcc;" horiz-adv-x="291" d="M195 0h-99v706h99v-706zM189 755h-82l-95 127h104z" />
			<glyph unicode="&#xcd;" horiz-adv-x="291" d="M195 0h-99v706h99v-706zM184 755h-81l73 127h104z" />
			<glyph unicode="&#xce;" horiz-adv-x="291" d="M92 755h-85l88 127h101l88 -127h-85l-53 80h-2zM195 0h-99v706h99v-706z" />
			<glyph unicode="&#xcf;" horiz-adv-x="291" d="M270 781h-80v101h80v-101zM103 781h-80v101h80v-101zM195 0h-99v706h99v-706z" />
			<glyph unicode="&#xd0;" horiz-adv-x="759" d="M349 0h-234v312h-59v82h59v312h234q164 0 261 -94q97 -93 97 -258q0 -166 -97 -260t-261 -94zM214 312v-226h128q122 0 192.5 70.5t70.5 197.5q0 126 -70.5 196t-192.5 70h-128v-226h149v-82h-149z" />
			<glyph unicode="&#xd1;" horiz-adv-x="757" d="M280 756h-70q0 127 102 127q32 0 71.5 -34t54.5 -34q19 0 29 18.5t10 46.5h70q0 -127 -102 -127q-25 0 -49.5 17t-44 34t-32.5 17q-39 0 -39 -65zM195 0h-99v706h98l314 -459q23 -32 50 -85l9 -17h2q-7 59 -7 102v459h99v-706h-97l-315 458q-21 29 -50 86l-9 17h-2 q7 -59 7 -103v-458z" />
			<glyph unicode="&#xd2;" horiz-adv-x="821" d="M48 358q0 153 105 256q106 104 258 104q153 0 257 -104q105 -103 105 -256q0 -156 -105 -263q-104 -107 -257 -107t-258 107t-105 263zM150 358q0 -119 76 -199q77 -80 185 -80q109 0 184 80q76 80 76 199q0 116 -76 192q-75 78 -184 78t-185 -78q-76 -76 -76 -192z M454 755h-82l-95 127h104z" />
			<glyph unicode="&#xd3;" horiz-adv-x="821" d="M48 358q0 153 105 256q106 104 258 104q153 0 257 -104q105 -103 105 -256q0 -156 -105 -263q-104 -107 -257 -107t-258 107t-105 263zM150 358q0 -119 76 -199q77 -80 185 -80q109 0 184 80q76 80 76 199q0 116 -76 192q-75 78 -184 78t-185 -78q-76 -76 -76 -192z M449 755h-81l73 127h104z" />
			<glyph unicode="&#xd4;" horiz-adv-x="821" d="M357 755h-85l88 127h101l88 -127h-85l-53 80h-2zM48 358q0 153 105 256q106 104 258 104q153 0 257 -104q105 -103 105 -256q0 -156 -105 -263q-104 -107 -257 -107t-258 107t-105 263zM150 358q0 -119 76 -199q77 -80 185 -80q109 0 184 80q76 80 76 199q0 116 -76 192 q-75 78 -184 78t-185 -78q-76 -76 -76 -192z" />
			<glyph unicode="&#xd5;" horiz-adv-x="821" d="M313 756h-70q0 127 102 127q32 0 71.5 -34t54.5 -34q19 0 29 18.5t10 46.5h70q0 -127 -102 -127q-25 0 -49.5 17t-44 34t-32.5 17q-39 0 -39 -65zM48 358q0 153 105 256q106 104 258 104q153 0 257 -104q105 -103 105 -256q0 -156 -105 -263q-104 -107 -257 -107 t-258 107t-105 263zM150 358q0 -119 76 -199q77 -80 185 -80q109 0 184 80q76 80 76 199q0 116 -76 192q-75 78 -184 78t-185 -78q-76 -76 -76 -192z" />
			<glyph unicode="&#xd6;" horiz-adv-x="821" d="M48 358q0 153 105 256q106 104 258 104q153 0 257 -104q105 -103 105 -256q0 -156 -105 -263q-104 -107 -257 -107t-258 107t-105 263zM150 358q0 -119 76 -199q77 -80 185 -80q109 0 184 80q76 80 76 199q0 116 -76 192q-75 78 -184 78t-185 -78q-76 -76 -76 -192z M535 781h-80v101h80v-101zM368 781h-80v101h80v-101z" />
			<glyph unicode="&#xd8;" horiz-adv-x="824" d="M50 358q0 153 105 256q106 104 258 104q100 0 185 -49l46 63l49 -34l-46 -64q61 -51 94.5 -122.5t33.5 -153.5q0 -156 -105 -263q-104 -107 -257 -107q-106 0 -192 53l-47 -66l-50 34l49 69q-123 109 -123 280zM673 358q0 122 -82 198l-314 -438q61 -39 136 -39 q109 0 184 80q76 80 76 199zM152 358q0 -120 78 -201l313 435q-58 36 -130 36q-109 0 -185 -78q-76 -76 -76 -192z" />
			<glyph unicode="&#xd9;" horiz-adv-x="728" d="M86 250v456h99v-456q0 -80 48 -125.5t130 -45.5q84 0 132 46t48 127v454h99v-456q0 -116 -77 -190q-77 -72 -201 -72t-201 72q-77 74 -77 190zM407 755h-82l-95 127h104z" />
			<glyph unicode="&#xda;" horiz-adv-x="728" d="M86 250v456h99v-456q0 -80 48 -125.5t130 -45.5q84 0 132 46t48 127v454h99v-456q0 -116 -77 -190q-77 -72 -201 -72t-201 72q-77 74 -77 190zM401 755h-81l73 127h104z" />
			<glyph unicode="&#xdb;" horiz-adv-x="728" d="M310 755h-85l88 127h101l88 -127h-85l-53 80h-2zM86 250v456h99v-456q0 -80 48 -125.5t130 -45.5q84 0 132 46t48 127v454h99v-456q0 -116 -77 -190q-77 -72 -201 -72t-201 72q-77 74 -77 190z" />
			<glyph unicode="&#xdc;" horiz-adv-x="728" d="M86 250v456h99v-456q0 -80 48 -125.5t130 -45.5q84 0 132 46t48 127v454h99v-456q0 -116 -77 -190q-77 -72 -201 -72t-201 72q-77 74 -77 190zM488 781h-80v101h80v-101zM321 781h-80v101h80v-101z" />
			<glyph unicode="&#xdd;" horiz-adv-x="588" d="M344 0h-99v299l-237 407h112l131 -232l43 -89h2q21 49 43 89l129 232h112l-236 -407v-299zM332 755h-81l73 127h104z" />
			<glyph unicode="&#xde;" horiz-adv-x="607" d="M194 0h-98v706h98v-120h160q98 0 159 -61q62 -60 62 -160t-62 -162t-160 -62h-159v-141zM194 500v-273h144q64 0 100.5 37t36.5 101q0 63 -36.5 99t-99.5 36h-145z" />
			<glyph unicode="&#xdf;" horiz-adv-x="588" d="M173 0h-97v530q0 89 64 138q65 50 152 50q81 0 136 -47q54 -47 54 -114q0 -33 -15.5 -61.5t-34.5 -45.5t-34.5 -38t-15.5 -41t28 -44t61.5 -45t61.5 -57.5t28 -79.5q0 -71 -50 -112q-49 -40 -121 -40q-78 0 -127 22l-15 7v86q55 -31 130 -31q38 0 61 18.5t23 53.5 q0 49 -90 99q-37 23 -63 55t-26 65q0 49 50 97q51 49 51 91q0 33 -25.5 55.5t-69.5 22.5q-50 0 -83 -29.5t-33 -81.5v-523z" />
			<glyph unicode="&#xe0;" horiz-adv-x="528" d="M35 142q0 174 305 174h22v9q0 111 -111 111q-33 0 -68 -11t-55 -25l-18 -13l-40 71q3 3 23 17q14 9 65 26t101 17q96 0 148 -51t52 -147v-320h-90v48l2 40h-2q-16 -26 -23 -35q-49 -65 -139 -65q-69 0 -121 41q-51 41 -51 113zM133 147q0 -34 25.5 -57.5t69.5 -23.5 q58 0 96 50q39 51 39 111v16h-25q-205 0 -205 -96zM306 579h-82l-95 127h104z" />
			<glyph unicode="&#xe1;" horiz-adv-x="528" d="M35 142q0 174 305 174h22v9q0 111 -111 111q-33 0 -68 -11t-55 -25l-18 -13l-40 71q3 3 23 17q14 9 65 26t101 17q96 0 148 -51t52 -147v-320h-90v48l2 40h-2q-16 -26 -23 -35q-49 -65 -139 -65q-69 0 -121 41q-51 41 -51 113zM133 147q0 -34 25.5 -57.5t69.5 -23.5 q58 0 96 50q39 51 39 111v16h-25q-205 0 -205 -96zM299 579h-81l73 127h104z" />
			<glyph unicode="&#xe2;" horiz-adv-x="528" d="M35 142q0 174 305 174h22v9q0 111 -111 111q-33 0 -68 -11t-55 -25l-18 -13l-40 71q3 3 23 17q14 9 65 26t101 17q96 0 148 -51t52 -147v-320h-90v48l2 40h-2q-16 -26 -23 -35q-49 -65 -139 -65q-69 0 -121 41q-51 41 -51 113zM133 147q0 -34 25.5 -57.5t69.5 -23.5 q58 0 96 50q39 51 39 111v16h-25q-205 0 -205 -96zM208 579h-85l88 127h101l88 -127h-85l-53 80h-2z" />
			<glyph unicode="&#xe3;" horiz-adv-x="528" d="M35 142q0 174 305 174h22v9q0 111 -111 111q-33 0 -68 -11t-55 -25l-18 -13l-40 71q3 3 23 17q14 9 65 26t101 17q96 0 148 -51t52 -147v-320h-90v48l2 40h-2q-16 -26 -23 -35q-49 -65 -139 -65q-69 0 -121 41q-51 41 -51 113zM133 147q0 -34 25.5 -57.5t69.5 -23.5 q58 0 96 50q39 51 39 111v16h-25q-205 0 -205 -96zM164 580h-70q0 127 102 127q32 0 71.5 -34t54.5 -34q19 0 29 18.5t10 46.5h70q0 -127 -102 -127q-25 0 -49.5 17t-44 34t-32.5 17q-39 0 -39 -65z" />
			<glyph unicode="&#xe4;" horiz-adv-x="528" d="M35 142q0 174 305 174h22v9q0 111 -111 111q-33 0 -68 -11t-55 -25l-18 -13l-40 71q3 3 23 17q14 9 65 26t101 17q96 0 148 -51t52 -147v-320h-90v48l2 40h-2q-16 -26 -23 -35q-49 -65 -139 -65q-69 0 -121 41q-51 41 -51 113zM133 147q0 -34 25.5 -57.5t69.5 -23.5 q58 0 96 50q39 51 39 111v16h-25q-205 0 -205 -96zM386 605h-80v101h80v-101zM219 605h-80v101h80v-101z" />
			<glyph unicode="&#xe5;" horiz-adv-x="528" d="M35 142q0 174 305 174h22v9q0 111 -111 111q-33 0 -68 -11t-55 -25l-18 -13l-40 71q3 3 23 17q14 9 65 26t101 17q96 0 148 -51t52 -147v-320h-90v48l2 40h-2q-16 -26 -23 -35q-49 -65 -139 -65q-69 0 -121 41q-51 41 -51 113zM133 147q0 -34 25.5 -57.5t69.5 -23.5 q58 0 96 50q39 51 39 111v16h-25q-205 0 -205 -96zM177 641q0 33 24.5 54t60.5 21t60.5 -21t24.5 -54q0 -32 -24.5 -53t-60.5 -21t-60.5 21t-24.5 53zM262 608q14 0 23.5 9.5t9.5 23.5q0 16 -9.5 25.5t-23.5 9.5q-15 0 -24 -9.5t-9 -25.5q0 -14 9 -23.5t24 -9.5z" />
			<glyph unicode="&#xe6;" horiz-adv-x="864" d="M36 142q0 43 21 77t54 52q32 18 76 29q64 16 151 16h25v9q0 111 -114 111q-31 0 -66 -11t-55 -25l-18 -13l-39 71q18 13 32 21q71 39 153 39q127 0 168 -89h2q60 89 185 89q100 0 155 -70q56 -70 56 -176l-2 -29h-363q4 -82 49.5 -126.5t118.5 -44.5q36 0 74 13.5 t58 30.5l18 14l40 -70q-9 -9 -24 -20q-19 -13 -67 -32q-52 -20 -104 -20q-74 0 -130.5 33t-87.5 94h-2q-12 -32 -49 -73q-51 -54 -142 -54q-73 0 -123 41q-50 42 -50 113zM461 316h263q-2 59 -35 92t-85 33q-58 0 -95.5 -32t-47.5 -93zM135 147q0 -35 25.5 -58t69.5 -23 q58 0 96 50q38 52 38 112v15h-47q-182 0 -182 -96z" />
			<glyph unicode="&#xe7;" horiz-adv-x="548" d="M41 253q0 113 76 189t195 76q58 0 103 -19q48 -18 67 -37l20 -18l-46 -68l-18 16q-9 9 -48 26q-35 16 -74 16q-76 0 -126 -51q-50 -52 -50 -129t50 -130q51 -52 129 -52q39 0 78.5 16t59.5 35l18 17l39 -71q-12 -12 -31 -27q-66 -49 -159 -54l-8 -38q33 -4 52.5 -23.5 t19.5 -49.5q0 -41 -28.5 -62.5t-73.5 -21.5q-35 0 -48 5l-7 2v58q18 -7 42 -7q48 0 48 31t-53 31l-18 -1l20 79q-101 13 -166 86q-63 72 -63 176z" />
			<glyph unicode="&#xe8;" horiz-adv-x="555" d="M41 253q0 118 71 192q72 73 182 73q103 0 161 -67t58 -170l-3 -42h-369q5 -81 53 -124q49 -43 121 -43q36 0 73.5 14t58.5 30l18 15l40 -71q-9 -9 -24 -20q-19 -13 -67 -32q-52 -20 -105 -20q-118 0 -193 75q-75 77 -75 190zM144 312h270q-2 61 -35.5 95t-86.5 34 q-58 0 -98 -34.5t-50 -94.5zM338 579h-82l-95 127h104z" />
			<glyph unicode="&#xe9;" horiz-adv-x="555" d="M41 253q0 118 71 192q72 73 182 73q103 0 161 -67t58 -170l-3 -42h-369q5 -81 53 -124q49 -43 121 -43q36 0 73.5 14t58.5 30l18 15l40 -71q-9 -9 -24 -20q-19 -13 -67 -32q-52 -20 -105 -20q-118 0 -193 75q-75 77 -75 190zM144 312h270q-2 61 -35.5 95t-86.5 34 q-58 0 -98 -34.5t-50 -94.5zM332 579h-81l73 127h104z" />
			<glyph unicode="&#xea;" horiz-adv-x="555" d="M41 253q0 118 71 192q72 73 182 73q103 0 161 -67t58 -170l-3 -42h-369q5 -81 53 -124q49 -43 121 -43q36 0 73.5 14t58.5 30l18 15l40 -71q-9 -9 -24 -20q-19 -13 -67 -32q-52 -20 -105 -20q-118 0 -193 75q-75 77 -75 190zM144 312h270q-2 61 -35.5 95t-86.5 34 q-58 0 -98 -34.5t-50 -94.5zM240 579h-85l88 127h101l88 -127h-85l-53 80h-2z" />
			<glyph unicode="&#xeb;" horiz-adv-x="555" d="M41 253q0 118 71 192q72 73 182 73q103 0 161 -67t58 -170l-3 -42h-369q5 -81 53 -124q49 -43 121 -43q36 0 73.5 14t58.5 30l18 15l40 -71q-9 -9 -24 -20q-19 -13 -67 -32q-52 -20 -105 -20q-118 0 -193 75q-75 77 -75 190zM144 312h270q-2 61 -35.5 95t-86.5 34 q-58 0 -98 -34.5t-50 -94.5zM418 605h-80v101h80v-101zM251 605h-80v101h80v-101z" />
			<glyph unicode="&#xec;" horiz-adv-x="249" d="M173 0h-97v506h97v-506zM168 579h-82l-95 127h104z" />
			<glyph unicode="&#xed;" horiz-adv-x="249" d="M173 0h-97v506h97v-506zM163 579h-81l73 127h104z" />
			<glyph unicode="&#xee;" horiz-adv-x="249" d="M72 579h-85l88 127h101l88 -127h-85l-53 80h-2zM173 0h-97v506h97v-506z" />
			<glyph unicode="&#xef;" horiz-adv-x="249" d="M249 605h-80v101h80v-101zM82 605h-80v101h80v-101zM173 0h-97v506h97v-506z" />
			<glyph unicode="&#xf0;" horiz-adv-x="589" d="M43 235q0 95 63 162q64 69 174 69q34 0 65 -10t45 -22l13 -10h2q-31 81 -109 133l-181 -80l-10 62l124 55q-60 31 -129 46l27 79q114 -25 207 -80l139 61l9 -61l-92 -42q144 -120 144 -322q0 -109 -58 -194q-30 -43 -81 -68t-115 -25q-109 0 -173 73t-64 174zM141 233 q0 -67 37 -114q38 -47 104 -47q75 0 114 56.5t39 129.5q0 57 -39 93.5t-102 36.5q-73 0 -113 -46q-40 -44 -40 -109z" />
			<glyph unicode="&#xf1;" horiz-adv-x="603" d="M215 580h-70q0 127 102 127q32 0 71.5 -34t54.5 -34q19 0 29 18.5t10 46.5h70q0 -127 -102 -127q-25 0 -49.5 17t-44 34t-32.5 17q-39 0 -39 -65zM173 0h-97v506h94v-67l-2 -37h2q19 42 68 79q47 37 122 37q174 0 174 -194v-324h-97v302q0 64 -21 95.5t-75 31.5 q-57 0 -100.5 -34.5t-59.5 -89.5q-8 -29 -8 -68v-237z" />
			<glyph unicode="&#xf2;" horiz-adv-x="624" d="M118 64q-79 76 -79 190t79 189q80 75 194 75t194 -75q79 -75 79 -189q0 -113 -80 -190q-79 -76 -193 -76q-115 0 -194 76zM312 72q74 0 123 51q51 52 51 131q0 78 -51 129q-49 51 -123 51q-72 0 -123 -51t-51 -129t51 -130t123 -52zM355 579h-82l-95 127h104z" />
			<glyph unicode="&#xf3;" horiz-adv-x="624" d="M118 64q-79 76 -79 190t79 189q80 75 194 75t194 -75q79 -75 79 -189q0 -113 -80 -190q-79 -76 -193 -76q-115 0 -194 76zM312 72q74 0 123 51q51 52 51 131q0 78 -51 129q-49 51 -123 51q-72 0 -123 -51t-51 -129t51 -130t123 -52zM350 579h-81l73 127h104z" />
			<glyph unicode="&#xf4;" horiz-adv-x="624" d="M259 579h-85l88 127h101l88 -127h-85l-53 80h-2zM118 64q-79 76 -79 190t79 189q80 75 194 75t194 -75q79 -75 79 -189q0 -113 -80 -190q-79 -76 -193 -76q-115 0 -194 76zM312 72q74 0 123 51q51 52 51 131q0 78 -51 129q-49 51 -123 51q-72 0 -123 -51t-51 -129 t51 -130t123 -52z" />
			<glyph unicode="&#xf5;" horiz-adv-x="624" d="M214 580h-70q0 127 102 127q32 0 71.5 -34t54.5 -34q19 0 29 18.5t10 46.5h70q0 -127 -102 -127q-25 0 -49.5 17t-44 34t-32.5 17q-39 0 -39 -65zM118 64q-79 76 -79 190t79 189q80 75 194 75t194 -75q79 -75 79 -189q0 -113 -80 -190q-79 -76 -193 -76q-115 0 -194 76z M312 72q74 0 123 51q51 52 51 131q0 78 -51 129q-49 51 -123 51q-72 0 -123 -51t-51 -129t51 -130t123 -52z" />
			<glyph unicode="&#xf6;" horiz-adv-x="624" d="M118 64q-79 76 -79 190t79 189q80 75 194 75t194 -75q79 -75 79 -189q0 -113 -80 -190q-79 -76 -193 -76q-115 0 -194 76zM312 72q74 0 123 51q51 52 51 131q0 78 -51 129q-49 51 -123 51q-72 0 -123 -51t-51 -129t51 -130t123 -52zM436 605h-80v101h80v-101zM269 605 h-80v101h80v-101z" />
			<glyph unicode="&#xf7;" horiz-adv-x="635" d="M364 435h-94v91h94v-91zM570 246h-505v78h505v-78zM364 44h-94v91h94v-91z" />
			<glyph unicode="&#xf8;" horiz-adv-x="624" d="M39 254q0 114 79 189q80 75 194 75q72 0 135 -33l40 55l47 -34l-39 -54q90 -76 90 -198q0 -113 -80 -190q-79 -76 -193 -76q-65 0 -128 29l-39 -55l-48 35l37 52q-95 77 -95 205zM188 124l208 289q-40 21 -84 21q-72 0 -123 -51t-51 -129q0 -77 50 -130zM486 254 q0 72 -45 122l-205 -287q37 -17 76 -17q74 0 123 51q51 52 51 131z" />
			<glyph unicode="&#xf9;" horiz-adv-x="598" d="M69 182v324h97v-302q0 -65 20.5 -95.5t74.5 -30.5q74 0 119 56t45 135v237h97v-506h-94v67l2 37h-2q-20 -44 -69 -80t-117 -36q-173 0 -173 194zM339 579h-82l-95 127h104z" />
			<glyph unicode="&#xfa;" horiz-adv-x="598" d="M69 182v324h97v-302q0 -65 20.5 -95.5t74.5 -30.5q74 0 119 56t45 135v237h97v-506h-94v67l2 37h-2q-20 -44 -69 -80t-117 -36q-173 0 -173 194zM333 579h-81l73 127h104z" />
			<glyph unicode="&#xfb;" horiz-adv-x="598" d="M242 579h-85l88 127h101l88 -127h-85l-53 80h-2zM69 182v324h97v-302q0 -65 20.5 -95.5t74.5 -30.5q74 0 119 56t45 135v237h97v-506h-94v67l2 37h-2q-20 -44 -69 -80t-117 -36q-173 0 -173 194z" />
			<glyph unicode="&#xfc;" horiz-adv-x="598" d="M69 182v324h97v-302q0 -65 20.5 -95.5t74.5 -30.5q74 0 119 56t45 135v237h97v-506h-94v67l2 37h-2q-20 -44 -69 -80t-117 -36q-173 0 -173 194zM420 605h-80v101h80v-101zM253 605h-80v101h80v-101z" />
			<glyph unicode="&#xfd;" horiz-adv-x="510" d="M17 -186l-12 7l34 74q29 -21 59 -21q59 0 91 74l25 58l-212 500h109l127 -331l19 -61h2q7 31 17 60l123 332h105l-237 -597q-23 -57 -66.5 -88t-97.5 -31q-51 0 -86 24zM296 579h-81l73 127h104z" />
			<glyph unicode="&#xfe;" horiz-adv-x="600" d="M173 -200h-97v906h97v-230l-1 -42h2q4 4 9 11q21 25 35 36q50 37 115 37q101 0 163 -74t62 -191q0 -118 -64 -191q-63 -74 -164 -74q-60 0 -98 24.5t-54 49.5l-5 9h-2q2 -24 2 -44v-227zM170 252q0 -80 40 -130t105 -50q62 0 103 50t41 131t-39 130q-39 51 -103 51 q-66 0 -106.5 -46.5t-40.5 -135.5z" />
			<glyph unicode="&#xff;" horiz-adv-x="510" d="M17 -186l-12 7l34 74q29 -21 59 -21q59 0 91 74l25 58l-212 500h109l127 -331l19 -61h2q7 31 17 60l123 332h105l-237 -597q-23 -57 -66.5 -88t-97.5 -31q-51 0 -86 24zM382 605h-80v101h80v-101zM215 605h-80v101h80v-101z" />
			<glyph unicode="&#x10a;" horiz-adv-x="722" d="M48 357q0 153 102 257q104 104 257 104q100 0 164 -33q57 -25 83 -51l10 -9l-49 -74q-8 8 -26 21q-15 12 -71 34q-51 22 -107 22q-115 0 -189 -78q-72 -76 -72 -192t73 -198q73 -81 189 -81q58 0 113 23q52 21 80 46l25 23l53 -71q-10 -14 -46 -39q-23 -17 -56 -34 q-76 -39 -172 -39q-157 0 -259 106t-102 263zM443 784h-87v98h87v-98z" />
			<glyph unicode="&#x10b;" horiz-adv-x="547" d="M40 253q0 113 76 189t195 76q58 0 103 -19q50 -19 68 -37l19 -18l-46 -68l-18 16q-9 9 -48 26q-35 16 -74 16q-77 0 -126 -51q-50 -52 -50 -129t50 -130q51 -52 129 -52q39 0 78.5 16t59.5 35l18 17l39 -71q-12 -12 -33 -28q-67 -50 -169 -53q-119 0 -195 75t-76 190z M336 608h-87v98h87v-98z" />
			<glyph unicode="&#x120;" horiz-adv-x="760" d="M49 354q0 155 103 259q103 105 257 105q87 0 152.5 -25t94.5 -51l10 -9l-50 -74q-12 10 -26 19q-16 12 -68 31q-51 19 -105 19q-121 0 -194 -78q-72 -76 -72 -194q0 -121 74 -200q74 -77 186 -77q56 0 104 22q53 24 73 44l23 22v102h-115v86h205v-355h-87v44l1 30h-2 q-15 -15 -36 -30q-22 -16 -44 -26q-62 -30 -137 -30q-146 0 -246 103q-101 104 -101 263zM442 784h-87v98h87v-98z" />
			<glyph unicode="&#x121;" horiz-adv-x="593" d="M89 -168l32 76q62 -34 139 -34q75 0 117.5 35.5t42.5 106.5v37l1 32h-2q-46 -79 -150 -79t-165 73t-61 186q0 111 59 182t162 71q63 0 103 -23t51 -45l5 -7h2q-1 5 -1 16v47h93v-485q0 -60 -21.5 -106t-58.5 -72.5t-81 -39.5t-94 -13q-90 0 -173 42zM288 90q62 0 98 42.5 t36 131.5q0 170 -143 170q-65 0 -101.5 -44.5t-36.5 -122.5q0 -81 39.5 -129t107.5 -48zM332 608h-87v98h87v-98z" />
			<glyph unicode="&#x126;" horiz-adv-x="800" d="M217 0h-99v514h-62v68h62v124h99v-124h366v124h99v-124h63v-68h-63v-514h-99v310h-366v-310zM217 514v-118h366v118h-366z" />
			<glyph unicode="&#x127;" horiz-adv-x="603" d="M76 563h-72v63h72v80h97v-80h133v-63h-133v-116l-2 -42h2q19 43 69 78t118 35q174 0 174 -194v-324h-97v302q0 64 -21 95.5t-75 31.5q-56 0 -100 -35t-60 -90q-8 -29 -8 -67v-237h-97v563z" />
			<glyph unicode="&#x131;" horiz-adv-x="249" d="M173 0h-97v506h97v-506z" />
			<glyph unicode="&#x13f;" horiz-adv-x="529" d="M511 0h-415v706h99v-620h316v-86zM411 328h-99v103h99v-103z" />
			<glyph unicode="&#x140;" horiz-adv-x="340" d="M70 138v568h97v-551q0 -40 13 -56t41 -16l17 1v-86q-20 -2 -32 -2q-136 0 -136 142zM339 328h-99v103h99v-103z" />
			<glyph unicode="&#x152;" horiz-adv-x="960" d="M48 354q0 153 104 257q106 104 261 104q21 0 66 -5q36 -4 57 -4h358v-86h-312v-221h254v-86h-254v-227h330v-86h-375q-21 0 -57 -4q-45 -5 -67 -5q-154 0 -260 104q-105 105 -105 259zM150 354q0 -118 74 -198q73 -79 189 -79q42 0 62 5l9 2v538q-34 8 -71 8 q-115 0 -189 -80t-74 -196z" />
			<glyph unicode="&#x153;" horiz-adv-x="1000" d="M310 518q147 0 219 -120h2q65 120 208 120q103 0 161 -67t58 -170l-3 -42h-369q6 -78 54 -122.5t120 -44.5q36 0 73.5 14t58.5 30l18 15l40 -71q-9 -9 -24 -20q-19 -13 -67 -32q-52 -20 -105 -20q-154 0 -221 123h-2q-71 -123 -221 -123q-113 0 -192 73q-78 73 -78 191 t78 191q80 75 192 75zM589 312h270q-2 61 -35.5 95t-85.5 34q-58 0 -98.5 -34.5t-50.5 -94.5zM139 252q0 -80 50 -130t123 -50t123 50q51 51 51 133q0 79 -51 129q-52 50 -123 50q-72 0 -123 -51q-50 -50 -50 -131z" />
			<glyph unicode="&#x160;" horiz-adv-x="546" d="M52 72l-10 9l56 75q8 -8 33 -27q70 -49 147 -49q53 0 87.5 28.5t34.5 75.5q0 41 -35 71.5t-85.5 51.5t-101 45t-85.5 66.5t-35 102.5q0 83 64 140q65 57 164 57q58 0 108 -18t71 -36l21 -17l-45 -82q-3 3 -21 17q-14 10 -54 27q-42 17 -80 17q-54 0 -91 -30t-37 -73 q0 -68 120 -116q38 -14 62 -24.5t58 -30.5t54 -41t34.5 -53.5t13.5 -70.5q0 -85 -61 -142t-163 -57q-78 0 -138 28t-86 56zM326 755h-101l-88 127h85l52 -81h2l53 81h85z" />
			<glyph unicode="&#x161;" horiz-adv-x="448" d="M56 44l-21 18l47 69q3 -4 18 -17q13 -10 50 -26q36 -16 77 -16q35 0 59.5 17.5t24.5 45.5q0 43 -92 77q-25 10 -33 13.5t-31.5 14t-33 18t-26.5 20.5t-24.5 26t-13.5 31.5t-6 38.5q0 66 51.5 105t131.5 39q46 0 88 -13t59 -29l16 -14l-39 -73l-15 12q-10 8 -42 20 q-30 13 -68 13q-37 0 -60 -16t-23 -46q0 -40 92 -76q37 -14 58.5 -24t51 -29t44 -46t14.5 -62q0 -64 -51 -105.5t-132 -41.5q-55 0 -103 18q-51 21 -68 38zM279 579h-101l-88 127h85l52 -81h2l53 81h85z" />
			<glyph unicode="&#x178;" horiz-adv-x="588" d="M344 0h-99v299l-237 407h112l131 -232l43 -89h2q21 49 43 89l129 232h112l-236 -407v-299zM415 781h-80v101h80v-101zM248 781h-80v101h80v-101z" />
			<glyph unicode="&#x17b;" horiz-adv-x="607" d="M559 0h-518v66l340 490q15 23 44 58l7 7v2q-20 -3 -53 -3h-320v86h496v-65l-340 -491q-27 -39 -44 -56l-7 -8v-2q26 2 53 2h342v-86zM357 784h-87v98h87v-98z" />
			<glyph unicode="&#x17c;" horiz-adv-x="517" d="M476 0h-437v56l255 320l42 47v2q-22 -2 -49 -2h-237v83h417v-56l-255 -321l-43 -46v-2q22 2 50 2h257v-83zM298 608h-87v98h87v-98z" />
			<glyph unicode="&#x17d;" horiz-adv-x="607" d="M559 0h-518v66l340 490q15 23 44 58l7 7v2q-20 -3 -53 -3h-320v86h496v-65l-340 -491q-27 -39 -44 -56l-7 -8v-2q26 2 53 2h342v-86zM364 755h-101l-88 127h85l52 -81h2l53 81h85z" />
			<glyph unicode="&#x17e;" horiz-adv-x="517" d="M305 579h-101l-88 127h85l52 -81h2l53 81h85zM476 0h-437v56l255 320l42 47v2q-22 -2 -49 -2h-237v83h417v-56l-255 -321l-43 -46v-2q22 2 50 2h257v-83z" />
			<glyph unicode="&#x192;" horiz-adv-x="569" d="M28 -105v84q38 -6 65 -6q17 0 33 4t35 14.5t31.5 34t15.5 58.5l23 266h-82v78h89l10 102q5 48 22 83.5t38.5 55t50 31t50.5 15t46 3.5l84 -7v-84q-46 7 -80 7q-17 0 -33 -4t-35 -14.5t-31.5 -34t-15.5 -58.5l-9 -95h117v-78h-124l-24 -274q-10 -117 -86 -156 q-58 -31 -120 -31z" />
			<glyph unicode="&#x2c6;" d="M196 755h-85l88 127h101l88 -127h-85l-53 80h-2z" />
			<glyph unicode="&#x2c7;" d="M300 755h-101l-88 127h85l52 -81h2l53 81h85z" />
			<glyph unicode="&#x2d8;" d="M250 751q-56 0 -94 32t-38 85v14h72v-13q0 -29 17 -44.5t43 -15.5q25 0 42 16t17 45v12h72v-14q0 -53 -37.5 -85t-93.5 -32z" />
			<glyph unicode="&#x2d9;" horiz-adv-x="500" d="M293 784h-87v98h87v-98z" />
			<glyph unicode="&#x2da;" horiz-adv-x="500" d="M165 817q0 33 24.5 54t60.5 21t60.5 -21t24.5 -54q0 -32 -24.5 -53t-60.5 -21t-60.5 21t-24.5 53zM250 784q14 0 23.5 9.5t9.5 23.5q0 16 -9.5 25.5t-23.5 9.5q-15 0 -24 -9.5t-9 -25.5q0 -14 9 -23.5t24 -9.5z" />
			<glyph unicode="&#x2db;" d="M170 -112q0 41 30 76.5t59 52.5l10 6l61 -13l-22 -16q-10 -9 -34 -36q-21 -27 -21 -47q0 -16 13 -27t29 -14l14 -2l-23 -75q-10 0 -40 9q-76 22 -76 86z" />
			<glyph unicode="&#x2dc;" d="M151 756h-70q0 127 102 127q32 0 71.5 -34t54.5 -34q19 0 29 18.5t10 46.5h70q0 -127 -102 -127q-25 0 -49.5 17t-44 34t-32.5 17q-39 0 -39 -65z" />
			<glyph unicode="&#x2dd;" d="M318 755h-78l73 127h101zM170 755h-84l68 127h87z" />
			<glyph unicode="&#x2000;" horiz-adv-x="446" />
			<glyph unicode="&#x2001;" horiz-adv-x="892" />
			<glyph unicode="&#x2002;" horiz-adv-x="446" />
			<glyph unicode="&#x2003;" horiz-adv-x="892" />
			<glyph unicode="&#x2004;" horiz-adv-x="297" />
			<glyph unicode="&#x2005;" horiz-adv-x="223" />
			<glyph unicode="&#x2006;" horiz-adv-x="148" />
			<glyph unicode="&#x2007;" horiz-adv-x="148" />
			<glyph unicode="&#x2008;" horiz-adv-x="111" />
			<glyph unicode="&#x2009;" horiz-adv-x="178" />
			<glyph unicode="&#x200a;" horiz-adv-x="49" />
			<glyph unicode="&#x2010;" horiz-adv-x="472" d="M382 242h-292v86h292v-86z" />
			<glyph unicode="&#x2011;" horiz-adv-x="472" d="M382 242h-292v86h292v-86z" />
			<glyph unicode="&#x2012;" horiz-adv-x="472" d="M382 242h-292v86h292v-86z" />
			<glyph unicode="&#x2013;" horiz-adv-x="706" d="M616 246h-526v78h526v-78z" />
			<glyph unicode="&#x2014;" horiz-adv-x="906" d="M816 246h-726v78h726v-78z" />
			<glyph unicode="&#x2018;" horiz-adv-x="227" d="M143 522h-94l66 195h71z" />
			<glyph unicode="&#x2019;" horiz-adv-x="219" d="M123 523h-72l43 195h94z" />
			<glyph unicode="&#x201a;" horiz-adv-x="244" d="M111 -90h-69l43 195h91z" />
			<glyph unicode="&#x201c;" horiz-adv-x="369" d="M285 522h-95l66 195h72zM144 522h-95l66 195h72z" />
			<glyph unicode="&#x201d;" horiz-adv-x="360" d="M265 523h-73l43 195h95zM123 523h-72l43 195h95z" />
			<glyph unicode="&#x201e;" horiz-adv-x="383" d="M250 -90h-70l43 195h92zM111 -90h-69l43 195h91z" />
			<glyph unicode="&#x2020;" horiz-adv-x="422" d="M256 -50h-93v479h-121v77h121v200h93v-200h124v-77h-124v-479z" />
			<glyph unicode="&#x2021;" horiz-adv-x="458" d="M181 171h-121v78h121v180h-121v77h121v200h93v-200h124v-77h-124v-180h124v-78h-124v-221h-93v221z" />
			<glyph unicode="&#x2022;" horiz-adv-x="411" d="M315 181q-45 -45 -109 -45t-110 45q-45 45 -45 110t45 110q46 45 110 45t109 -46q45 -45 45 -109q0 -63 -45 -110z" />
			<glyph unicode="&#x2026;" horiz-adv-x="770" d="M694 0h-99v103h99v-103zM435 0h-100v103h100v-103zM175 0h-99v103h99v-103z" />
			<glyph unicode="&#x202f;" horiz-adv-x="178" />
			<glyph unicode="&#x2030;" horiz-adv-x="1115" d="M48 570q0 60 44 104t107 44t107 -44q45 -44 45 -104q0 -62 -45 -105q-43 -43 -107 -43t-107 43q-44 44 -44 105zM157 0h-94l540 706h94zM273 570q0 31 -21.5 53t-52.5 22t-52.5 -22t-21.5 -53q0 -32 21.5 -53t52.5 -21t52.5 21t21.5 53zM765 136q0 60 44 104t107 44 t107 -44q45 -43 45 -104q0 -62 -45 -105q-43 -43 -107 -43t-107 43q-44 44 -44 105zM410 136q0 60 44 104q46 44 108 44q61 0 107 -44q45 -43 45 -104q0 -62 -45 -105q-44 -43 -107 -43q-65 0 -108 43q-44 44 -44 105zM842 136q0 -32 21 -53t53 -21t53 21t21 53 q0 31 -21.5 53t-52.5 22t-52.5 -22t-21.5 -53zM488 136q0 -32 21 -53t53 -21q31 -2 52.5 21.5t21.5 52.5t-22 53q-23 22 -52 22t-52.5 -22t-21.5 -53z" />
			<glyph unicode="&#x2039;" horiz-adv-x="355" d="M305 77h-97l-164 205l164 206h97l-164 -206z" />
			<glyph unicode="&#x203a;" horiz-adv-x="355" d="M147 77h-97l164 205l-164 206h97l164 -206z" />
			<glyph unicode="&#x2044;" horiz-adv-x="168" d="M290 706l-336 -706h-75l336 706h75z" />
			<glyph unicode="&#x205f;" horiz-adv-x="223" />
			<glyph unicode="&#x20ac;" horiz-adv-x="591" d="M104 258h-66v63h55q-5 41 0 72h-55v64h67q30 114 123 188q92 73 215 73q50 0 88 -9l13 -3l-24 -91q-39 11 -79 11q-83 0 -144.5 -45.5t-86.5 -123.5h281l-13 -64h-282q-6 -31 -1 -72h270l-13 -63h-240q22 -78 86 -128q64 -48 147 -48q49 0 79 10l12 3l19 -90 q-49 -17 -112 -17q-125 0 -219 74q-92 75 -120 196z" />
			<glyph unicode="&#x2122;" horiz-adv-x="940" d="M510 266h-75l35 440h69l104 -230l14 -42h2q7 27 13 42l104 230h70l34 -440h-75l-21 263l1 30h-2l-95 -212h-61l-95 212h-2l1 -30zM251 266h-76v373h-152v67h380v-67h-152v-373z" />
			<glyph unicode="&#x221e;" horiz-adv-x="508" d="M254 167q-74 0 -129 53q-53 55 -53 129q0 75 53 128q55 53 129 53q76 0 129 -53t53 -128q0 -74 -53 -129q-53 -53 -129 -53z" />
			<glyph unicode="&#x2248;" horiz-adv-x="613" d="M98 321l-41 59q69 73 151 73q49 0 107 -35q59 -35 91 -35q59 0 110 55l41 -59q-71 -72 -151 -72q-49 0 -108 35q-58 35 -90 35q-56 0 -110 -56zM98 133l-41 58q69 73 151 73q49 0 107 -35q59 -35 91 -35q59 0 110 55l41 -59q-71 -72 -151 -72q-49 0 -108 35 q-58 35 -90 35q-58 0 -110 -55z" />
			<glyph unicode="&#x2260;" horiz-adv-x="613" d="M174 39l-52 34l56 78h-110v78h162l80 111h-242v78h294l82 115l51 -35l-58 -80h108v-78h-160l-79 -111h239v-78h-292z" />
			<glyph unicode="&#x2264;" horiz-adv-x="613" d="M533 44l-466 208v66l466 208v-89l-358 -151v-2l358 -151v-89zM68 -173v78h465v-78h-465z" />
			<glyph unicode="&#x2265;" horiz-adv-x="613" d="M547 252l-467 -208v89l358 151v2l-358 151v89l467 -208v-66zM80 -173v78h465v-78h-465z" />
			<glyph unicode="&#x25fc;" horiz-adv-x="505" d="M0 505h505v-505h-505v505z" />
			</font>
</defs>
</svg>
