<?xml version="1.0" standalone="no"?>
<!DOCTYPE svg PUBLIC "-//W3C//DTD SVG 1.1//EN" "http://www.w3.org/Graphics/SVG/1.1/DTD/svg11.dtd" >
<svg xmlns="http://www.w3.org/2000/svg" version="1.1">
	<metadata></metadata>
	<defs>
		<font id="museo_sans700" horiz-adv-x="625">
			<font-face units-per-em="1000" ascent="773" descent="-227" />
			<missing-glyph horiz-adv-x="243" />
			<glyph unicode="&#xfb01;" horiz-adv-x="614" d="M544 0h-127v409h-194v-409h-127v409h-63v101h63v15q0 93 52 138q62 53 156 51l43 -3v-108q-14 2 -26 2q-98 0 -98 -83v-12h321v-510zM543 597h-126v113h126v-113z" />
			<glyph unicode="&#xfb02;" horiz-adv-x="631" d="M223 0h-127v401h-63v101h63v23q0 93 52 138q62 53 156 51l43 -3v-108q-14 2 -26 2q-98 0 -98 -83v-20h109v-101h-109v-401zM410 159v551h126v-532q0 -39 12 -54.5t40 -15.5l19 1v-111q-19 -3 -40 -3q-61 0 -104 26q-53 34 -53 138z" />
			<glyph horiz-adv-x="0" />
			<glyph horiz-adv-x="333" />
			<glyph unicode=" " horiz-adv-x="243" />
			<glyph unicode="&#x09;" horiz-adv-x="243" />
			<glyph unicode="&#xa0;" horiz-adv-x="243" />
			<glyph unicode="!" horiz-adv-x="328" d="M220 205h-111l-11 505h132zM226 0h-123v118h123v-118z" />
			<glyph unicode="&#x22;" horiz-adv-x="366" d="M310 514h-94v209h94v-209zM150 514h-94v209h94v-209z" />
			<glyph unicode="#" horiz-adv-x="706" d="M225 0h-102l32 187h-119l15 91h119l25 140h-117l15 92h118l35 200h102l-35 -200h136l35 200h102l-35 -200h121l-16 -92h-120l-25 -140h119l-15 -91h-120l-32 -187h-102l33 187h-137zM297 418l-25 -140h137l25 140h-137z" />
			<glyph unicode="$" horiz-adv-x="570" d="M66 65l-21 20l70 97q9 -9 33 -26q70 -49 144 -49q44 0 73.5 23t29.5 63q0 56 -120 104q-55 23 -99 46q-53 27 -86 71.5t-33 101.5q0 77 52 132q53 56 136 69v94h86v-92q48 -3 92.5 -21t65.5 -36l18 -16l-56 -105q-2 2 -5.5 4.5t-8.5 6t-8 6.5q-16 13 -54 28 q-42 17 -81 17q-46 0 -76.5 -24t-30.5 -61q0 -53 119 -101q45 -17 76.5 -32.5t68 -42t55.5 -63.5t18 -83q0 -80 -52 -136q-52 -57 -141 -69v-92h-86v92q-58 8 -107 30q-48 23 -72 44z" />
			<glyph unicode="%" horiz-adv-x="792" d="M38 564q0 64 48 111q49 47 115 47t115 -47q49 -46 49 -111q0 -66 -48 -112q-47 -46 -116 -46t-116 46q-47 47 -47 112zM180 0h-117l545 710h117zM268 564q0 27 -19.5 46.5t-47.5 19.5t-47 -19.5t-19 -46.5q0 -28 19 -47t47 -19t47.5 19t19.5 47zM589 303q66 0 115 -47 q48 -46 48 -111t-48 -111q-46 -46 -115 -46t-116 46q-47 47 -47 111t47 111q49 47 116 47zM523 146q0 -28 19 -47t47 -19t47.5 19t19.5 47q0 27 -19.5 46.5t-47.5 19.5t-47 -19.5t-19 -46.5z" />
			<glyph unicode="&#x26;" horiz-adv-x="687" d="M45 201q0 59 33 108q33 50 88 69v2q-8 2 -32 20q-58 51 -58 135q0 90 63 138q62 49 161 49q37 0 80 -9l13 -3l-31 -102q-24 6 -47 6q-48 0 -78.5 -25.5t-30.5 -69.5q0 -41 26.5 -67.5t81.5 -26.5h113v92h127v-92h92v-112h-92v-84q0 -110 -68 -176q-68 -65 -187 -65 q-113 0 -184 60q-70 61 -70 153zM177 209q0 -45 34 -74t88 -29q61 0 94.5 33.5t33.5 96.5v77h-120q-61 0 -95.5 -27t-34.5 -77z" />
			<glyph unicode="'" horiz-adv-x="208" d="M152 514h-96v209h96v-209z" />
			<glyph unicode="(" horiz-adv-x="310" d="M291 -95h-107q-119 196 -119 438q0 210 119 398h107q-113 -191 -113 -399q0 -228 113 -437z" />
			<glyph unicode=")" horiz-adv-x="310" d="M126 -95h-107q113 212 113 437q0 208 -113 399h107q119 -188 119 -398q0 -242 -119 -438z" />
			<glyph unicode="*" horiz-adv-x="461" d="M230 431l-69 -110l-91 66l83 100v2l-126 31l34 108l121 -49l-9 131h115l-9 -131l121 49l36 -107l-128 -32v-2l84 -99l-91 -67l-69 110h-2z" />
			<glyph unicode="+" horiz-adv-x="633" d="M265 236h-216v99h216v237h103v-237h216v-99h-216v-236h-103v236z" />
			<glyph unicode="," horiz-adv-x="265" d="M113 -105h-96l67 234h125z" />
			<glyph unicode="-" horiz-adv-x="457" d="M379 230h-301v111h301v-111z" />
			<glyph unicode="." horiz-adv-x="257" d="M192 0h-127v127h127v-127z" />
			<glyph unicode="/" horiz-adv-x="410" d="M135 -42h-108l254 788h109z" />
			<glyph unicode="0" horiz-adv-x="629" d="M57 356q0 366 257 366q200 0 244 -222q14 -67 14 -144q0 -161 -56 -260q-28 -51 -81 -80q-50 -28 -121 -28q-70 0 -122 28q-132 77 -135 340zM439 356q0 247 -125 247t-125 -247q0 -250 125 -250t125 250z" />
			<glyph unicode="1" horiz-adv-x="512" d="M488 0h-434v111h154v394l1 48h-2q-7 -17 -31 -40l-57 -54l-76 80l178 171h113v-599h154v-111z" />
			<glyph unicode="2" horiz-adv-x="580" d="M527 0h-471q-6 46 -6 63q0 52 18.5 97t47.5 77.5t64.5 60.5t71 52t64.5 47t47.5 49.5t18.5 54.5q0 44 -30.5 71.5t-77.5 27.5q-43 0 -76 -25.5t-47 -50.5l-5 -8l-96 64q12 24 33 49q20 24 45 43q66 50 157 50q98 0 164 -57q67 -55 67 -153q0 -52 -24 -99 q-15 -29 -38.5 -55t-43 -41.5t-54.5 -40.5q-11 -8 -45 -31t-46.5 -33t-33 -28.5t-28 -35.5t-8.5 -37h332v-111z" />
			<glyph unicode="3" horiz-adv-x="574" d="M44 73l-9 10l66 99l21 -20q14 -13 56 -32q43 -20 84 -20q55 0 91.5 30t36.5 76q0 53 -42 81.5t-110 28.5h-49l-29 66l130 154l51 54v2q-21 -3 -63 -3h-212v111h434v-81l-174 -201q80 -11 137 -66q57 -54 57 -141q0 -95 -68 -165q-68 -68 -182 -68q-79 0 -149 33 q-55 30 -77 52z" />
			<glyph unicode="4" horiz-adv-x="621" d="M360 183h-332v79l306 448h153v-420h92v-107h-92v-183h-127v183zM164 292v-2h196v220l5 74h-2q-19 -42 -35 -65z" />
			<glyph unicode="5" horiz-adv-x="569" d="M52 74l-9 10l66 97q6 -8 26 -25q61 -46 125 -46q53 0 94 33q40 34 40 88t-40 88.5t-103 34.5q-51 0 -97 -22l-13 -8l-71 26l33 360h373v-111h-262l-11 -117l-5 -33h2q32 16 76 16q115 0 182 -67q68 -68 68 -166q0 -105 -73 -175q-72 -69 -183 -69q-86 0 -145 34 q-53 31 -73 52z" />
			<glyph unicode="6" horiz-adv-x="604" d="M327 -12q-116 0 -195 91t-79 246q0 72 20.5 141t59.5 127t103.5 93.5t143.5 35.5q78 0 129 -22l16 -8l-38 -111q-44 22 -100 22q-78 0 -126 -55q-48 -54 -63 -135h2q19 22 57 36t76 14q102 0 165 -69t63 -168q0 -100 -65 -170q-65 -68 -169 -68zM327 106q47 0 76.5 34 t29.5 86q0 58 -35 94.5t-95 36.5q-48 0 -82 -22t-34 -55q0 -67 42 -121q42 -53 98 -53z" />
			<glyph unicode="7" horiz-adv-x="544" d="M212 0h-134l266 534q20 40 37 58l6 7v2q-18 -2 -49 -2h-303v111h488v-90z" />
			<glyph unicode="8" horiz-adv-x="611" d="M51 206q0 46 24 89q34 61 83 94q-73 55 -73 139q0 80 59 137q58 57 169 57q100 0 165 -53t65 -144q0 -86 -79 -175q91 -58 91 -151q0 -86 -68 -149q-68 -62 -182 -62q-113 0 -184 62q-70 63 -70 156zM424 205q0 37 -39 62q-18 12 -36 22q-13 7 -51 24q-25 11 -49 23 q-66 -56 -66 -120q0 -49 36 -82q37 -32 86 -32q51 0 85 29t34 74zM212 525q0 -30 27 -59q9 -10 33 -24l36 -19l45 -19q15 -7 16 -7q48 53 48 120q0 41 -29 65.5t-77 24.5q-46 0 -72.5 -22.5t-26.5 -59.5z" />
			<glyph unicode="9" horiz-adv-x="604" d="M224 -12q-77 0 -128 22l-17 8l38 111q46 -23 99 -23q78 0 126 54q49 55 64 136h-2q-19 -22 -57 -36t-77 -14q-102 0 -165 69q-62 71 -62 169q0 99 65 169q64 69 169 69q116 0 195 -91t79 -246q0 -72 -20.5 -141t-59.5 -127t-103.5 -93.5t-143.5 -35.5zM301 352 q48 0 82 22.5t34 54.5q0 68 -43 120q-42 54 -97 54q-47 0 -77 -33.5t-30 -85.5q0 -58 35 -95t96 -37z" />
			<glyph unicode=":" horiz-adv-x="288" d="M207 383h-126v127h126v-127zM207 0h-126v127h126v-127z" />
			<glyph unicode=";" horiz-adv-x="292" d="M128 -105h-97l58 234h125zM216 383h-126v127h126v-127z" />
			<glyph unicode="&#x3c;" horiz-adv-x="556" d="M506 31l-481 214v82l481 214v-111l-347 -143v-2l347 -143v-111z" />
			<glyph unicode="=" horiz-adv-x="652" d="M570 339h-488v98h488v-98zM570 134h-488v98h488v-98z" />
			<glyph unicode="&#x3e;" horiz-adv-x="556" d="M531 245l-481 -214v111l347 143v2l-347 143v111l481 -214v-82z" />
			<glyph unicode="?" horiz-adv-x="487" d="M256 205h-123v48q0 76 58 129q8 7 35 31.5t38 36t22.5 32.5t11.5 42q0 35 -28 59t-69 24q-48 0 -93 -31l-14 -11l-70 87l22 20q17 13 64 32q51 20 102 20q89 0 153 -52q65 -51 65 -136q0 -87 -62 -144q-10 -9 -36.5 -33t-39 -37t-24.5 -35t-12 -43v-39zM256 0h-123v118 h123v-118z" />
			<glyph unicode="@" horiz-adv-x="834" d="M51 240q0 156 108 264q109 109 268 109q144 0 209 -61q66 -61 66 -157v-250h73v-91h-277q-98 0 -156 55q-59 56 -59 131t58 129q59 54 157 54h85q-1 39 -43.5 63.5t-108.5 24.5q-107 0 -181 -81q-74 -82 -74 -190q0 -112 74 -191q75 -77 197 -77v-99q-177 0 -286 105 q-110 105 -110 262zM506 145h77v196h-75q-44 0 -71.5 -28t-27.5 -70t27.5 -70t69.5 -28z" />
			<glyph unicode="A" horiz-adv-x="637" d="M636 0h-133l-60 182h-249l-60 -182h-133l250 710h135zM348 477l-28 110h-2q-16 -67 -30 -110l-63 -190h186z" />
			<glyph unicode="B" horiz-adv-x="642" d="M347 0h-257v710h254q99 0 159 -49t60 -134q0 -50 -23 -90t-63 -62v-2q54 -15 84.5 -61.5t30.5 -105.5q0 -102 -70 -154t-175 -52zM219 599v-179h125q41 0 64.5 25.5t23.5 65.5q0 41 -23.5 64.5t-66.5 23.5h-123zM219 316v-205h138q47 0 75 28.5t28 74.5t-28 74t-75 28 h-138z" />
			<glyph unicode="C" horiz-adv-x="716" d="M41 358q0 155 104 259q105 105 261 105q97 0 167 -34q61 -29 85 -53l10 -10l-62 -96l-26 20q-16 13 -67 34t-101 21q-109 0 -174 -71q-64 -70 -64 -173q0 -105 66 -180q66 -74 173 -74q63 0 115 26t82 54l9 10l68 -93q-8 -12 -46 -40q-29 -21 -57 -35q-80 -40 -176 -40 q-161 0 -264 106t-103 264z" />
			<glyph unicode="D" horiz-adv-x="739" d="M332 0h-242v710h242q167 0 264 -94q98 -95 98 -260q0 -166 -98 -261t-264 -95zM219 599v-488h106q111 0 173.5 64t62.5 181q0 115 -63 179t-173 64h-106z" />
			<glyph unicode="E" horiz-adv-x="575" d="M531 0h-441v710h425v-111h-296v-186h239v-111h-239v-191h312v-111z" />
			<glyph unicode="F" horiz-adv-x="529" d="M219 0h-129v710h408v-111h-279v-201h235v-111h-235v-287z" />
			<glyph unicode="G" horiz-adv-x="760" d="M42 356q0 154 104 260q105 106 262 106q95 0 168 -32q55 -24 86 -48l10 -10l-64 -96q-16 13 -25 19q-14 10 -65 30q-48 19 -99 19q-116 0 -180 -70q-64 -68 -64 -174q0 -113 68 -184q67 -70 170 -70q49 0 92 18q48 21 65 38l21 18v83h-109v111h225v-374h-110v34l1 30h-2 q-8 -8 -35 -27q-70 -49 -171 -49q-145 0 -247 102q-101 104 -101 266z" />
			<glyph unicode="H" horiz-adv-x="763" d="M219 0h-129v710h129v-301h325v301h129v-710h-129v298h-325v-298z" />
			<glyph unicode="I" horiz-adv-x="309" d="M219 0h-129v710h129v-710z" />
			<glyph unicode="J" horiz-adv-x="547" d="M24 210v41h128v-33q0 -55 26 -83.5t68 -28.5q41 0 66 27t25 79v387h-183v111h312v-500q0 -109 -66 -166q-65 -56 -156 -56q-90 0 -155 57t-65 165z" />
			<glyph unicode="K" horiz-adv-x="647" d="M219 0h-129v710h129v-289h92l167 289h140l-201 -338v-2l213 -370h-145l-174 310h-92v-310z" />
			<glyph unicode="L" horiz-adv-x="539" d="M526 0h-436v710h129v-599h307v-111z" />
			<glyph unicode="M" horiz-adv-x="878" d="M197 0h-129l58 710h138l139 -351l36 -104h2q25 77 35 104l139 351h138l57 -710h-128l-30 397l-1 110h-2q-20 -66 -38 -110l-115 -275h-113l-114 275l-39 111h-2q2 -70 -1 -111z" />
			<glyph unicode="N" horiz-adv-x="760" d="M219 0h-129v710h129l269 -410q21 -31 50 -92l9 -18h2q-7 63 -7 110v410h128v-710h-128l-269 409q-18 27 -50 91l-9 19h-2q7 -63 7 -110v-409z" />
			<glyph unicode="O" horiz-adv-x="816" d="M41 360q0 154 105 257q106 105 262 105t261 -105q106 -103 106 -257q0 -158 -106 -265q-105 -107 -261 -107q-155 0 -262 107q-105 108 -105 265zM174 360q0 -108 68 -182q68 -72 166 -72t166 72q68 74 68 182q0 103 -68 174q-67 70 -166 70t-166 -70q-68 -71 -68 -174z " />
			<glyph unicode="P" horiz-adv-x="614" d="M219 0h-129v710h274q100 0 163 -64t63 -167t-63 -169q-63 -65 -163 -65h-145v-245zM219 599v-242h121q56 0 87.5 32.5t31.5 89.5q0 55 -31.5 87.5t-85.5 32.5h-123z" />
			<glyph unicode="Q" horiz-adv-x="826" d="M41 359q0 153 105 258t261 105q157 0 262 -105q106 -103 106 -258q0 -121 -78 -225l80 -72l-74 -82l-79 78q-91 -70 -217 -70q-154 0 -261 107q-105 108 -105 264zM174 359q0 -108 67 -181q67 -72 166 -72q69 0 124 37l-79 75l74 81l77 -77q39 63 39 137q0 104 -68 175 q-67 70 -167 70q-99 0 -166 -70t-67 -175z" />
			<glyph unicode="R" horiz-adv-x="658" d="M219 0h-129v710h229q98 0 143 -20q55 -25 85.5 -75.5t30.5 -118.5q0 -66 -33 -119t-87 -75v-2q12 -12 24 -35l146 -265h-144l-141 265h-124v-265zM219 599v-222h116q52 0 82 29.5t30 82.5q0 56 -30 83t-100 27h-98z" />
			<glyph unicode="S" horiz-adv-x="554" d="M46 75l-10 10l70 97q9 -9 33 -26q70 -49 144 -49q44 0 73.5 23t29.5 63q0 58 -118 107q-35 14 -59.5 24.5t-57.5 30.5t-52.5 41t-34 52.5t-13.5 67.5q0 88 68 147t170 59q64 0 115 -19q55 -20 75 -38l22 -19l-56 -105q-2 2 -5.5 4.5t-8.5 6t-8 6.5q-16 13 -54 28 q-42 17 -81 17q-46 0 -76.5 -24t-30.5 -61q0 -58 118 -103q35 -13 59.5 -24t56.5 -30.5t52 -41t34 -53.5t14 -70q0 -88 -64 -148q-63 -60 -170 -60q-81 0 -143.5 29t-91.5 58z" />
			<glyph unicode="T" horiz-adv-x="603" d="M366 0h-129v599h-233v111h595v-111h-233v-599z" />
			<glyph unicode="U" horiz-adv-x="733" d="M80 255v455h129v-455q0 -69 42.5 -109t114.5 -40q73 0 115.5 39.5t42.5 110.5v454h129v-455q0 -120 -79 -193q-80 -74 -207 -74q-128 0 -208 74q-79 73 -79 193z" />
			<glyph unicode="V" horiz-adv-x="644" d="M386 0h-128l-259 710h139l156 -463q12 -35 23 -87l4 -17h2l4 17q11 52 23 87l157 463h138z" />
			<glyph unicode="W" horiz-adv-x="966" d="M426 710h112l126 -491q9 -32 12 -65l1 -10h2q3 34 12 75l117 491h133l-183 -710h-149l-109 420l-18 93h-2q-6 -47 -18 -93l-109 -420h-149l-178 710h133l112 -491l12 -75h2l1 10q3 33 12 65z" />
			<glyph unicode="X" horiz-adv-x="633" d="M161 0h-144l221 360l-212 350h147l97 -174l45 -87h2q15 35 43 87l99 174h148l-214 -350l222 -360h-145l-110 191l-44 84h-2q-18 -40 -44 -84z" />
			<glyph unicode="Y" horiz-adv-x="605" d="M367 0h-129v297l-236 413h146l111 -209q21 -37 41 -93l2 -2h2q17 46 43 95l110 209h146l-236 -413v-297z" />
			<glyph unicode="Z" horiz-adv-x="614" d="M571 0h-533v83l315 452q24 36 45 57l7 7v2q-26 -2 -53 -2h-298v111h513v-82l-315 -453q-24 -36 -45 -57l-7 -7v-2q26 2 53 2h318v-111z" />
			<glyph unicode="[" horiz-adv-x="317" d="M290 -95h-197v836h197v-92h-89v-652h89v-92z" />
			<glyph unicode="\" horiz-adv-x="411" d="M384 -42h-109l-255 788h109z" />
			<glyph unicode="]" horiz-adv-x="317" d="M27 -95v92h89v652h-89v92h197v-836h-197z" />
			<glyph unicode="^" horiz-adv-x="619" d="M175 245h-110l201 465h80l201 -465h-110l-131 331z" />
			<glyph unicode="_" horiz-adv-x="601" d="M20 -98v98h561v-98h-561z" />
			<glyph unicode="`" horiz-adv-x="493" d="M350 757h-103l-104 136h131z" />
			<glyph unicode="a" horiz-adv-x="534" d="M27 147q0 100 119 147q34 13 68 17q57 9 115 9h17v7q0 90 -98 90q-63 0 -121 -37l-19 -12l-48 91q6 5 25 17q20 12 69 28q53 18 106 18q101 0 156.5 -53t55.5 -150v-319h-117v42l2 36h-2q1 0 -4 -9.5t-17 -22.5t-29 -26t-45 -22.5t-60 -9.5q-73 0 -123 43q-50 44 -50 116 zM155 153q0 -28 20.5 -47t56.5 -19q48 0 81 42q34 43 34 92v12h-22q-170 0 -170 -80z" />
			<glyph unicode="b" horiz-adv-x="611" d="M190 0h-120v710h127v-219l-2 -43h2q12 16 22 26q52 48 131 48q102 0 164 -74t62 -193q0 -121 -66 -194q-64 -73 -168 -73q-54 0 -92.5 23t-53.5 45l-6 8h-2q2 -20 2 -35v-29zM193 252q0 -64 33 -111q34 -46 94 -46q56 0 92 43t36 115t-35 116t-92 44q-56 0 -92 -42 t-36 -119z" />
			<glyph unicode="c" horiz-adv-x="545" d="M33 255q0 113 76 189q77 78 201 78q60 0 108 -19q50 -19 68 -38l20 -19l-56 -87l-17 15q-9 8 -46 24q-33 16 -70 16q-69 0 -112 -46q-43 -44 -43 -112q0 -67 44 -114q43 -46 115 -46q39 0 75 16q41 18 56 32l19 17l49 -90q-17 -17 -34 -29q-22 -15 -43 -25 q-56 -29 -133 -29q-125 0 -201 76t-76 191z" />
			<glyph unicode="d" horiz-adv-x="611" d="M35 255q0 120 64 193q65 74 167 74q58 0 93.5 -19t48.5 -39l5 -7h2q-1 9 -1 29v224h127v-710h-120v42l2 33h-2q-9 -16 -23 -30q-48 -57 -137 -57q-103 0 -165 74q-61 73 -61 193zM163 255q0 -72 35 -116t92 -44q56 0 92 42t36 119q0 64 -34 110q-33 47 -93 47 q-56 0 -92 -43t-36 -115z" />
			<glyph unicode="e" horiz-adv-x="554" d="M34 255q0 119 72 192q74 75 187 75q107 0 166 -69q60 -67 60 -173l-3 -49h-352q6 -62 48.5 -98.5t104.5 -36.5q34 0 71 13t58 29l18 14l49 -91q-11 -11 -36 -26q-76 -47 -169 -47q-122 0 -199 77q-75 78 -75 190zM168 318h223q-1 49 -29 77.5t-72 28.5q-49 0 -81 -28 t-41 -78z" />
			<glyph unicode="f" horiz-adv-x="347" d="M223 0h-127v401h-63v101h63v23q0 93 52 138q62 53 156 51l43 -3v-108q-14 2 -26 2q-98 0 -98 -83v-20h109v-101h-109v-401z" />
			<glyph unicode="g" horiz-adv-x="604" d="M84 -166l38 97q64 -33 141 -33q66 0 105 31t39 93v30l2 27h-2q-46 -69 -142 -69q-106 0 -168 74q-61 74 -61 184t60 182t166 72q98 0 146 -58l5 -7h3q-1 4 -1 14v39h119v-479q0 -63 -23 -111t-62 -75.5t-85.5 -41t-98.5 -13.5q-98 0 -181 44zM292 117q55 0 86.5 36.5 t31.5 113.5q0 147 -126 147q-57 0 -88.5 -38t-31.5 -104q0 -70 34.5 -112.5t93.5 -42.5z" />
			<glyph unicode="h" horiz-adv-x="613" d="M197 0h-127v710h127v-246l-2 -43h2q22 44 69 72.5t107 28.5q177 0 177 -194v-328h-126v302q0 53 -18.5 78.5t-62.5 25.5q-48 0 -85.5 -29t-52.5 -77q-8 -29 -8 -66v-234z" />
			<glyph unicode="i" horiz-adv-x="267" d="M196 597h-126v113h126v-113zM197 0h-127v510h127v-510z" />
			<glyph unicode="j" horiz-adv-x="267" d="M196 597h-126v113h126v-113zM70 -5v515h127v-525q0 -97 -55 -141q-62 -53 -158 -51l-39 3v107q12 -2 22 -2q17 0 32 3.5t32.5 12t28 29t10.5 49.5z" />
			<glyph unicode="k" horiz-adv-x="552" d="M197 0h-127v710h127v-380h63l123 180h141l-161 -228v-2l181 -280h-146l-135 223h-66v-223z" />
			<glyph unicode="l" horiz-adv-x="284" d="M63 159v551h126v-532q0 -39 12 -54.5t40 -15.5l19 1v-111q-20 -3 -40 -3q-61 0 -104 26q-53 34 -53 138z" />
			<glyph unicode="m" horiz-adv-x="913" d="M197 0h-127v510h122v-59l-2 -35h2q22 45 67 75.5t99 30.5q118 0 149 -105h2q22 45 70 75t104 30q167 0 167 -194v-328h-127v304q0 53 -15 77.5t-55 24.5q-46 0 -78.5 -31.5t-44.5 -84.5q-6 -24 -6 -66v-224h-127v304q0 52 -15 77t-54 25q-46 0 -79 -32t-46 -85 q-6 -23 -6 -65v-224z" />
			<glyph unicode="n" horiz-adv-x="613" d="M197 0h-127v510h122v-59l-2 -35h2q23 46 69.5 76t111.5 30q177 0 177 -194v-328h-126v302q0 53 -18.5 78.5t-62.5 25.5q-50 0 -86 -28t-51 -76q-9 -27 -9 -68v-234z" />
			<glyph unicode="o" d="M313 -12q-119 0 -200 75q-81 77 -81 192q0 116 81 191q80 76 199 76t199 -76q82 -75 82 -191q0 -115 -81 -192q-81 -75 -199 -75zM161 255q0 -69 44 -115q44 -44 108 -44q63 0 107 44q44 46 44 115q0 68 -44 114q-43 45 -107 45q-63 0 -108 -45q-44 -46 -44 -114z" />
			<glyph unicode="p" horiz-adv-x="611" d="M197 -200h-127v710h116v-37l-2 -35h2q18 24 23 29q51 55 141 55q102 0 164 -74t62 -193q0 -121 -66 -194q-64 -73 -167 -73q-52 0 -88.5 21t-52.5 42l-5 7h-2q2 -24 2 -44v-214zM193 252q0 -64 33 -111q34 -46 94 -46q56 0 92 43t36 115t-35 116t-92 44q-56 0 -92 -42 t-36 -119z" />
			<glyph unicode="q" horiz-adv-x="611" d="M35 255q0 120 64 193q65 74 167 74q47 0 86 -17.5t55 -38.5l14 -18h2q-2 18 -2 33v29h120v-710h-127v220l2 44h-2q-12 -16 -23 -27q-49 -49 -130 -49q-103 0 -165 74q-61 73 -61 193zM163 255q0 -72 35 -116t92 -44q56 0 92 42t36 119q0 64 -34 110q-33 47 -93 47 q-56 0 -92 -43t-36 -115z" />
			<glyph unicode="r" horiz-adv-x="393" d="M197 0h-127v510h122v-88l-2 -36h2q18 58 62 94.5t100 36.5l23 -2v-125q-18 2 -30 2q-47 0 -84.5 -27.5t-54.5 -79.5q-11 -36 -11 -83v-202z" />
			<glyph unicode="s" horiz-adv-x="452" d="M48 44l-21 19l58 89l17 -16q10 -8 48 -25q38 -15 74 -15q29 0 48 12.5t19 33.5q0 20 -25.5 36.5t-62 30.5t-73 32.5t-62 52t-25.5 78.5q0 69 55 109q56 41 140 41q48 0 91.5 -13.5t62.5 -30.5l17 -14l-47 -94l-15 12q-12 9 -43 20q-31 12 -67 12q-28 0 -46.5 -12 t-18.5 -34q0 -19 25.5 -34.5t62 -29.5t73 -32t62 -51.5t25.5 -79.5q0 -66 -53 -110q-52 -43 -142 -43q-57 0 -106 18q-50 20 -71 38z" />
			<glyph unicode="t" horiz-adv-x="377" d="M92 187v214h-66v101h69v147h124v-147h116v-101h-116v-198q0 -55 31 -76q32 -20 70 -20l23 2v-111q-15 -3 -39 -3q-56 0 -105 19q-107 41 -107 173z" />
			<glyph unicode="u" horiz-adv-x="609" d="M63 182v328h127v-302q0 -53 18 -78.5t61 -25.5q66 0 104 50q39 49 39 122v234h127v-510h-122v58l2 36h-2q-22 -45 -70.5 -75.5t-106.5 -30.5q-177 0 -177 194z" />
			<glyph unicode="v" horiz-adv-x="519" d="M335 0h-150l-185 510h134l106 -316q2 -8 5 -19.5t6.5 -25.5t4.5 -19l2 -13h2l2 13q1 5 4.5 19t6.5 25.5t5 19.5l106 316h134z" />
			<glyph unicode="w" horiz-adv-x="821" d="M312 0h-142l-156 510h134l89 -335l10 -54h2q5 27 12 54l94 334h113l94 -334l11 -54h2q6 36 11 54l89 335h132l-155 -510h-141l-86 291l-13 55h-2q-4 -27 -12 -55z" />
			<glyph unicode="x" horiz-adv-x="524" d="M277 148l-14 27h-2q-9 -20 -14 -27l-89 -148h-141l168 258l-164 252h144l79 -139l17 -32h2q4 8 17 32l79 139h144l-164 -252l168 -258h-141z" />
			<glyph unicode="y" horiz-adv-x="521" d="M14 -186l-13 9l42 95q29 -21 57 -21q60 0 88 66l19 45l-215 502h143l107 -294l19 -69h2q7 36 17 67l100 296h139l-228 -587q-26 -65 -74 -99t-110 -34q-56 0 -93 24z" />
			<glyph unicode="z" horiz-adv-x="524" d="M486 0h-451v68l229 287q18 23 38 41l5 6v2q-20 -2 -47 -2h-215v108h434v-69l-229 -287q-13 -17 -38 -42l-6 -5v-2q15 3 48 3h232v-108z" />
			<glyph unicode="{" horiz-adv-x="365" d="M128 71v97q0 51 -25.5 76t-50.5 27l-9 1v111q3 0 9 1t20.5 7t26 16.5t20.5 31.5t9 50v86q0 82 45 125q19 17 45 28q44 16 87 16l31 -1v-94q-5 1 -18 1q-30 2 -55 -17t-27 -68v-109q0 -37 -15 -65.5t-29.5 -40t-29.5 -18.5l-8 -3v-2q10 -2 28 -15q54 -32 54 -111v-120 q0 -27 8.5 -45.5t23 -26t26 -10.5t24.5 -3l18 1v-94q-18 -2 -31 -2q-43 0 -87 16q-90 34 -90 154z" />
			<glyph unicode="|" horiz-adv-x="290" d="M199 -161h-108v957h108v-957z" />
			<glyph unicode="}" horiz-adv-x="365" d="M29 -97v94q5 -1 18 -1q81 0 81 85v120q0 53 24.5 83t49.5 40l9 3v2q-3 1 -9 3.5t-20 12.5t-25 23t-20 36.5t-9 51.5v109q0 26 -8.5 44.5t-22.5 26.5t-25.5 11t-24.5 3l-18 -1v94q9 1 31 1q43 0 86 -16q91 -34 91 -153v-86q0 -42 20 -70t44 -32l21 -4v-111q-3 0 -9 -1 t-20.5 -7t-26 -16t-20.5 -31t-9 -49v-97q0 -84 -46 -126q-17 -17 -45 -28q-43 -16 -86 -16z" />
			<glyph unicode="~" horiz-adv-x="610" d="M157 199h-101q0 182 154 182q66 0 104 -46q41 -45 80 -45q30 0 46 24.5t16 62.5h100q0 -182 -153 -182q-64 0 -105 45q-39 45 -79 45q-30 0 -46 -24t-16 -62z" />
			<glyph unicode="&#xa1;" horiz-adv-x="305" d="M213 391h-122v118h122v-118zM218 -200h-132l11 504h111z" />
			<glyph unicode="&#xa2;" horiz-adv-x="576" d="M343 -12h-86v86q-96 17 -154 94t-58 187t58 187q58 78 154 95v84h86v-84q66 -12 116 -55t74 -107l-114 -44q-36 89 -116 89q-58 0 -94 -46.5t-36 -118.5q0 -75 35 -120t95 -45q80 0 116 89l114 -44q-25 -61 -74 -107q-48 -46 -116 -54v-86z" />
			<glyph unicode="&#xa3;" horiz-adv-x="591" d="M109 311h-43v87h43v121q0 88 64 145q64 58 164 58q45 0 89.5 -17t68.5 -37l21 -18l-73 -88q-46 43 -103 43q-44 0 -72 -25.5t-28 -64.5v-117h177v-87h-177v-200h312v-111h-501v111h58v200z" />
			<glyph unicode="&#xa5;" horiz-adv-x="614" d="M216 345h-137v76h98l-154 289h147l93 -189q17 -34 38 -97l5 -17h2q15 57 43 114l93 189h147l-154 -289h98v-76h-137l-25 -49v-33h162v-76h-162v-187h-131v187h-163v76h163v33z" />
			<glyph unicode="&#xa7;" horiz-adv-x="470" d="M236 138h-99l-73 344q-7 31 -7 57q0 82 55 132.5t150 50.5q44 0 85.5 -14.5t62.5 -31.5l19 -16l-57 -81q-46 39 -109 39q-47 0 -75 -23.5t-28 -70.5q0 -19 7 -50zM56 -16l-18 15l54 86l15 -13q10 -7 40 -19t58 -12q47 0 75 26t28 75q0 16 -9 57l-67 323h100l71 -344 q7 -29 7 -51q0 -86 -54 -137.5t-151 -51.5q-44 0 -86 14t-63 32z" />
			<glyph unicode="&#xa8;" horiz-adv-x="493" d="M387 777h-97v116h97v-116zM204 777h-98v116h98v-116z" />
			<glyph unicode="&#xa9;" horiz-adv-x="809" d="M403 721q150 0 255 -107q105 -106 105 -259q0 -152 -105 -260q-105 -107 -255 -107q-148 0 -253 107q-104 109 -104 260q0 152 104 259q105 107 253 107zM403 69q115 0 193 83q79 82 79 203q0 120 -79 202q-78 83 -193 83q-113 0 -191 -83q-77 -83 -77 -202 q0 -120 77 -203q78 -83 191 -83zM408 548q62 0 102 -31t55 -63l5 -11l-76 -36l-3 5q-3 6 -10 15t-16 17.5t-23.5 14.5t-30.5 6q-44 0 -71 -31.5t-27 -80.5t27 -80.5t71 -31.5q24 0 45 13.5t30 29.5l8 15l76 -35q0 -1 -2.5 -6t-7.5 -12.5t-13 -18.5q-49 -69 -139 -69 q-82 0 -134 57q-53 58 -53 138t53 138q52 57 134 57z" />
			<glyph unicode="&#xaa;" horiz-adv-x="413" d="M169 383q-44 0 -75.5 27t-31.5 71q0 110 185 110h9v7q0 52 -58 52q-32 0 -70 -20l-12 -7l-32 59q3 3 15 10q12 9 46.5 18.5t66.5 9.5q65 0 99.5 -34.5t34.5 -95.5v-201h-84v44h-2q-4 -7 -9 -14q-8 -11 -32 -23.5t-50 -12.5zM192 453q26 0 44.5 22t18.5 50v7h-11 q-92 0 -92 -45q0 -15 11 -24.5t29 -9.5zM349 266h-286v68h286v-68z" />
			<glyph unicode="&#xab;" horiz-adv-x="584" d="M423 77l-164 205l164 206h121l-164 -206l164 -205h-121zM320 77h-121l-164 205l164 206h121l-164 -206z" />
			<glyph unicode="&#xac;" horiz-adv-x="603" d="M433 339h-386v98h488v-294h-102v196z" />
			<glyph unicode="&#xad;" horiz-adv-x="457" d="M379 230h-301v111h301v-111z" />
			<glyph unicode="&#xae;" horiz-adv-x="809" d="M403 721q150 0 255 -107q105 -106 105 -259q0 -152 -105 -260q-105 -107 -255 -107q-148 0 -253 107q-104 109 -104 260q0 152 104 259q105 107 253 107zM403 69q115 0 193 83q79 82 79 203q0 120 -79 202q-78 83 -193 83q-113 0 -191 -83q-77 -83 -77 -202 q0 -120 77 -203q78 -83 191 -83zM363 174h-85v366h152q54 0 87 -32t33 -84q0 -37 -19.5 -62.5t-45.5 -32.5v-2q3 -3 13 -21l69 -132h-94l-62 135h-48v-135zM363 478v-109h47q25 0 39 14.5t14 40.5t-14 40t-38 14h-48z" />
			<glyph unicode="&#xaf;" horiz-adv-x="493" d="M378 783h-262v87h262v-87z" />
			<glyph unicode="&#xb0;" horiz-adv-x="395" d="M35 565q0 64 47 111q49 47 116 47q66 0 115 -47q48 -46 48 -111t-48 -112q-47 -45 -115 -45t-116 45q-47 47 -47 112zM265 565q0 27 -19.5 46.5t-47.5 19.5t-47 -19.5t-19 -46.5q0 -28 19 -47t47 -19t47.5 19t19.5 47z" />
			<glyph unicode="&#xb1;" horiz-adv-x="633" d="M265 236h-216v99h216v237h103v-237h216v-99h-216v-236h-103v236zM63 -183v98h508v-98h-508z" />
			<glyph unicode="&#xb4;" horiz-adv-x="493" d="M245 757h-102l76 136h131z" />
			<glyph unicode="&#xb5;" horiz-adv-x="629" d="M186 -200h-109v710h126v-302q0 -53 18 -78.5t61 -25.5q66 0 104 50q39 49 39 122v234h127v-510h-122v62l2 32h-3l-3 -6q-2 -5 -7 -12.5t-14 -18.5q-58 -69 -152 -69q-49 0 -65 16l-7 5h-2q7 -46 7 -83v-126z" />
			<glyph unicode="&#xb6;" horiz-adv-x="613" d="M363 -50h-92v291q-96 0 -166 68q-69 69 -69 167t69 166q70 68 166 68h305v-111h-213v-649zM518 -50h-93v594h93v-594z" />
			<glyph unicode="&#xb7;" horiz-adv-x="277" d="M200 229h-123v126h123v-126z" />
			<glyph unicode="&#xb8;" horiz-adv-x="493" d="M180 -86l31 111l58 -13v-7l-11 -49q34 -4 53.5 -23.5t19.5 -52.5q0 -44 -30 -66t-78 -22q-35 0 -53 6l-8 1v70q22 -8 43 -8q44 0 44 28q0 27 -48 27z" />
			<glyph unicode="&#xba;" horiz-adv-x="457" d="M228 384q-73 0 -124 48t-51 121t51 119q51 48 124 48q74 0 125 -48q51 -46 51 -119t-51 -121t-125 -48zM228 464q36 0 60.5 25t24.5 64q0 38 -24.5 63t-60.5 25t-60 -25t-24 -63q0 -39 24 -64t60 -25zM390 266h-322v68h322v-68z" />
			<glyph unicode="&#xbb;" horiz-adv-x="585" d="M386 77h-121l164 205l-164 206h121l164 -206zM161 77h-121l164 205l-164 206h121l164 -206z" />
			<glyph unicode="&#xbf;" horiz-adv-x="459" d="M329 392h-122v118h122v-118zM32 -22q0 84 61 143q8 8 30.5 27t32.5 29.5t24.5 27t20.5 32.5t6 33v35h122v-44q0 -74 -58 -130l-28 -24.5t-30 -27.5t-23 -26t-19 -31t-6 -32q0 -35 28 -59.5t69 -24.5q45 0 92 32l14 11l71 -88q-8 -8 -23 -20q-14 -11 -64 -31 q-51 -20 -101 -20q-89 0 -154 51t-65 137z" />
			<glyph unicode="&#xc0;" horiz-adv-x="637" d="M636 0h-133l-60 182h-249l-60 -182h-133l250 710h135zM348 477l-28 110h-2q-16 -67 -30 -110l-63 -190h186zM373 757h-103l-104 136h131z" />
			<glyph unicode="&#xc1;" horiz-adv-x="637" d="M636 0h-133l-60 182h-249l-60 -182h-133l250 710h135zM348 477l-28 110h-2q-16 -67 -30 -110l-63 -190h186zM366 757h-102l76 136h131z" />
			<glyph unicode="&#xc2;" horiz-adv-x="637" d="M636 0h-133l-60 182h-249l-60 -182h-133l250 710h135zM348 477l-28 110h-2q-16 -67 -30 -110l-63 -190h186zM268 757h-105l92 136h127l93 -136h-105l-50 81h-2z" />
			<glyph unicode="&#xc3;" horiz-adv-x="637" d="M636 0h-133l-60 182h-249l-60 -182h-133l250 710h135zM348 477l-28 110h-2q-16 -67 -30 -110l-63 -190h186zM224 758h-87q0 137 112 137q32 0 72.5 -32.5t53.5 -32.5q39 0 39 62h86q0 -137 -112 -137q-33 0 -73 32.5t-53 32.5q-38 0 -38 -62z" />
			<glyph unicode="&#xc4;" horiz-adv-x="637" d="M636 0h-133l-60 182h-249l-60 -182h-133l250 710h135zM348 477l-28 110h-2q-16 -67 -30 -110l-63 -190h186zM459 777h-97v116h97v-116zM276 777h-98v116h98v-116z" />
			<glyph unicode="&#xc5;" horiz-adv-x="637" d="M636 0h-133l-60 182h-249l-60 -182h-133l250 710h135zM348 477l-28 110h-2q-16 -67 -30 -110l-63 -190h186zM319 745q-40 0 -67.5 21.5t-27.5 56.5q0 36 27.5 57.5t67.5 21.5t67 -21.5t27 -57.5q0 -35 -27.5 -56.5t-66.5 -21.5zM319 789q15 0 24.5 9.5t9.5 24.5 q0 22 -17 31t-34 0t-17 -31q0 -15 9 -24.5t25 -9.5z" />
			<glyph unicode="&#xc6;" horiz-adv-x="903" d="M130 0h-134l295 710h553v-111h-297v-186h240v-111h-240v-191h312v-111h-440v304h-169zM419 599h-53l-75 -190h128v190z" />
			<glyph unicode="&#xc7;" horiz-adv-x="718" d="M43 358q0 155 104 259q105 105 261 105q97 0 167 -34q61 -29 85 -53l10 -10l-62 -96l-26 20q-16 13 -67 34t-101 21q-109 0 -174 -71q-64 -70 -64 -173q0 -105 66 -180q66 -74 173 -74q63 0 115 26t82 54l9 10l68 -93q-22 -22 -43 -38q-26 -20 -53 -34q-73 -38 -165 -42 l-7 -33q34 -4 53.5 -23.5t19.5 -52.5q0 -44 -30 -66t-78 -22q-32 0 -54 6l-7 1v70q22 -8 43 -8q44 0 44 28q0 27 -48 27l-21 -2l21 77q-144 15 -232 118q-89 104 -89 249z" />
			<glyph unicode="&#xc8;" horiz-adv-x="575" d="M531 0h-441v710h425v-111h-296v-186h239v-111h-239v-191h312v-111zM367 757h-103l-104 136h131z" />
			<glyph unicode="&#xc9;" horiz-adv-x="575" d="M531 0h-441v710h425v-111h-296v-186h239v-111h-239v-191h312v-111zM360 757h-102l76 136h131z" />
			<glyph unicode="&#xca;" horiz-adv-x="575" d="M531 0h-441v710h425v-111h-296v-186h239v-111h-239v-191h312v-111zM262 757h-105l92 136h127l93 -136h-105l-50 81h-2z" />
			<glyph unicode="&#xcb;" horiz-adv-x="575" d="M531 0h-441v710h425v-111h-296v-186h239v-111h-239v-191h312v-111zM453 777h-97v116h97v-116zM270 777h-98v116h98v-116z" />
			<glyph unicode="&#xcc;" horiz-adv-x="309" d="M219 0h-129v710h129v-710zM210 757h-103l-104 136h131z" />
			<glyph unicode="&#xcd;" horiz-adv-x="309" d="M219 0h-129v710h129v-710zM202 757h-102l76 136h131z" />
			<glyph unicode="&#xce;" horiz-adv-x="309" d="M104 757h-105l92 136h127l93 -136h-105l-50 81h-2zM219 0h-129v710h129v-710z" />
			<glyph unicode="&#xcf;" horiz-adv-x="309" d="M296 777h-97v116h97v-116zM113 777h-98v116h98v-116zM219 0h-129v710h129v-710z" />
			<glyph unicode="&#xd0;" horiz-adv-x="758" d="M109 301h-58v105h58v304h242q167 0 264 -94q98 -95 98 -260q0 -166 -98 -261t-264 -95h-242v301zM238 301v-190h106q111 0 173.5 64t62.5 181q0 115 -63 179t-173 64h-106v-193h132v-105h-132z" />
			<glyph unicode="&#xd1;" horiz-adv-x="760" d="M286 758h-87q0 137 112 137q32 0 72.5 -32.5t53.5 -32.5q39 0 39 62h86q0 -137 -112 -137q-33 0 -73 32.5t-53 32.5q-38 0 -38 -62zM219 0h-129v710h129l269 -410q21 -31 50 -92l9 -18h2q-7 63 -7 110v410h128v-710h-128l-269 409q-18 27 -50 91l-9 19h-2q7 -63 7 -110 v-409z" />
			<glyph unicode="&#xd2;" horiz-adv-x="816" d="M41 360q0 154 105 257q106 105 262 105t261 -105q106 -103 106 -257q0 -158 -106 -265q-105 -107 -261 -107q-155 0 -262 107q-105 108 -105 265zM174 360q0 -108 68 -182q68 -72 166 -72t166 72q68 74 68 182q0 103 -68 174q-67 70 -166 70t-166 -70q-68 -71 -68 -174z M463 757h-103l-104 136h131z" />
			<glyph unicode="&#xd3;" horiz-adv-x="816" d="M41 360q0 154 105 257q106 105 262 105t261 -105q106 -103 106 -257q0 -158 -106 -265q-105 -107 -261 -107q-155 0 -262 107q-105 108 -105 265zM174 360q0 -108 68 -182q68 -72 166 -72t166 72q68 74 68 182q0 103 -68 174q-67 70 -166 70t-166 -70q-68 -71 -68 -174z M455 757h-102l76 136h131z" />
			<glyph unicode="&#xd4;" horiz-adv-x="816" d="M41 360q0 154 105 257q106 105 262 105t261 -105q106 -103 106 -257q0 -158 -106 -265q-105 -107 -261 -107q-155 0 -262 107q-105 108 -105 265zM174 360q0 -108 68 -182q68 -72 166 -72t166 72q68 74 68 182q0 103 -68 174q-67 70 -166 70t-166 -70q-68 -71 -68 -174z M357 757h-105l92 136h127l93 -136h-105l-50 81h-2z" />
			<glyph unicode="&#xd5;" horiz-adv-x="816" d="M314 758h-87q0 137 112 137q32 0 72.5 -32.5t53.5 -32.5q39 0 39 62h86q0 -137 -112 -137q-33 0 -73 32.5t-53 32.5q-38 0 -38 -62zM41 360q0 154 105 257q106 105 262 105t261 -105q106 -103 106 -257q0 -158 -106 -265q-105 -107 -261 -107q-155 0 -262 107 q-105 108 -105 265zM174 360q0 -108 68 -182q68 -72 166 -72t166 72q68 74 68 182q0 103 -68 174q-67 70 -166 70t-166 -70q-68 -71 -68 -174z" />
			<glyph unicode="&#xd6;" horiz-adv-x="816" d="M41 360q0 154 105 257q106 105 262 105t261 -105q106 -103 106 -257q0 -158 -106 -265q-105 -107 -261 -107q-155 0 -262 107q-105 108 -105 265zM174 360q0 -108 68 -182q68 -72 166 -72t166 72q68 74 68 182q0 103 -68 174q-67 70 -166 70t-166 -70q-68 -71 -68 -174z M549 777h-97v116h97v-116zM366 777h-98v116h98v-116z" />
			<glyph unicode="&#xd8;" horiz-adv-x="820" d="M44 360q0 154 105 257q107 105 262 105q98 0 183 -46l43 60l57 -39l-43 -60q60 -51 93.5 -122.5t33.5 -154.5q0 -158 -106 -265q-105 -107 -261 -107q-105 0 -191 51l-47 -65l-57 39l49 67q-121 109 -121 280zM645 360q0 103 -68 174l-285 -395q56 -33 119 -33 q99 0 166 72q68 74 68 182zM239 184l283 392q-50 28 -111 28q-99 0 -166 -70q-68 -71 -68 -174t62 -176z" />
			<glyph unicode="&#xd9;" horiz-adv-x="733" d="M80 255v455h129v-455q0 -69 42.5 -109t114.5 -40q73 0 115.5 39.5t42.5 110.5v454h129v-455q0 -120 -79 -193q-80 -74 -207 -74q-128 0 -208 74q-79 73 -79 193zM421 757h-103l-104 136h131z" />
			<glyph unicode="&#xda;" horiz-adv-x="733" d="M80 255v455h129v-455q0 -69 42.5 -109t114.5 -40q73 0 115.5 39.5t42.5 110.5v454h129v-455q0 -120 -79 -193q-80 -74 -207 -74q-128 0 -208 74q-79 73 -79 193zM413 757h-102l76 136h131z" />
			<glyph unicode="&#xdb;" horiz-adv-x="733" d="M80 255v455h129v-455q0 -69 42.5 -109t114.5 -40q73 0 115.5 39.5t42.5 110.5v454h129v-455q0 -120 -79 -193q-80 -74 -207 -74q-128 0 -208 74q-79 73 -79 193zM315 757h-105l92 136h127l93 -136h-105l-50 81h-2z" />
			<glyph unicode="&#xdc;" horiz-adv-x="733" d="M80 255v455h129v-455q0 -69 42.5 -109t114.5 -40q73 0 115.5 39.5t42.5 110.5v454h129v-455q0 -120 -79 -193q-80 -74 -207 -74q-128 0 -208 74q-79 73 -79 193zM507 777h-97v116h97v-116zM324 777h-98v116h98v-116z" />
			<glyph unicode="&#xdd;" horiz-adv-x="605" d="M367 0h-129v297l-236 413h146l111 -209q21 -37 41 -93l2 -2h2q17 46 43 95l110 209h146l-236 -413v-297zM350 757h-102l76 136h131z" />
			<glyph unicode="&#xde;" horiz-adv-x="615" d="M218 0h-128v710h128v-115h145q100 0 163 -64q63 -65 63 -167q0 -104 -63 -168q-63 -65 -163 -65h-145v-131zM218 484v-242h121q56 0 87.5 32.5t31.5 89.5q0 56 -31 88t-86 32h-123z" />
			<glyph unicode="&#xdf;" horiz-adv-x="604" d="M197 0h-127v529q0 90 68 141q68 52 163 52q86 0 147 -50q60 -50 60 -124q0 -60 -45 -101q-45 -39 -45 -75q0 -28 81 -83q33 -23 57 -59t24 -76q0 -77 -52 -119t-128 -42q-77 0 -122 19l-13 7v108q54 -26 116 -26q32 0 51.5 15t19.5 45q0 37 -81 88q-33 21 -57 53.5 t-24 66.5q0 52 45 93q45 45 45 84q0 29 -22.5 48.5t-60.5 19.5q-44 0 -72 -25t-28 -69v-520z" />
			<glyph unicode="&#xe0;" horiz-adv-x="534" d="M27 147q0 100 119 147q34 13 68 17q57 9 115 9h17v7q0 90 -98 90q-63 0 -121 -37l-19 -12l-48 91q6 5 25 17q20 12 69 28q53 18 106 18q101 0 156.5 -53t55.5 -150v-319h-117v42l2 36h-2q1 0 -4 -9.5t-17 -22.5t-29 -26t-45 -22.5t-60 -9.5q-73 0 -123 43q-50 44 -50 116 zM155 153q0 -28 20.5 -47t56.5 -19q48 0 81 42q34 43 34 92v12h-22q-170 0 -170 -80zM320 573h-103l-104 136h131z" />
			<glyph unicode="&#xe1;" horiz-adv-x="534" d="M27 147q0 100 119 147q34 13 68 17q57 9 115 9h17v7q0 90 -98 90q-63 0 -121 -37l-19 -12l-48 91q6 5 25 17q20 12 69 28q53 18 106 18q101 0 156.5 -53t55.5 -150v-319h-117v42l2 36h-2q1 0 -4 -9.5t-17 -22.5t-29 -26t-45 -22.5t-60 -9.5q-73 0 -123 43q-50 44 -50 116 zM155 153q0 -28 20.5 -47t56.5 -19q48 0 81 42q34 43 34 92v12h-22q-170 0 -170 -80zM311 573h-102l76 136h131z" />
			<glyph unicode="&#xe2;" horiz-adv-x="534" d="M27 147q0 100 119 147q34 13 68 17q57 9 115 9h17v7q0 90 -98 90q-63 0 -121 -37l-19 -12l-48 91q6 5 25 17q20 12 69 28q53 18 106 18q101 0 156.5 -53t55.5 -150v-319h-117v42l2 36h-2q1 0 -4 -9.5t-17 -22.5t-29 -26t-45 -22.5t-60 -9.5q-73 0 -123 43q-50 44 -50 116 zM155 153q0 -28 20.5 -47t56.5 -19q48 0 81 42q34 43 34 92v12h-22q-170 0 -170 -80zM213 573h-105l92 136h127l93 -136h-105l-50 81h-2z" />
			<glyph unicode="&#xe3;" horiz-adv-x="534" d="M27 147q0 100 119 147q34 13 68 17q57 9 115 9h17v7q0 90 -98 90q-63 0 -121 -37l-19 -12l-48 91q6 5 25 17q20 12 69 28q53 18 106 18q101 0 156.5 -53t55.5 -150v-319h-117v42l2 36h-2q1 0 -4 -9.5t-17 -22.5t-29 -26t-45 -22.5t-60 -9.5q-73 0 -123 43q-50 44 -50 116 zM155 153q0 -28 20.5 -47t56.5 -19q48 0 81 42q34 43 34 92v12h-22q-170 0 -170 -80zM170 574h-87q0 137 112 137q32 0 72.5 -32.5t53.5 -32.5q39 0 39 62h86q0 -137 -112 -137q-33 0 -73 32.5t-53 32.5q-38 0 -38 -62z" />
			<glyph unicode="&#xe4;" horiz-adv-x="534" d="M27 147q0 100 119 147q34 13 68 17q57 9 115 9h17v7q0 90 -98 90q-63 0 -121 -37l-19 -12l-48 91q6 5 25 17q20 12 69 28q53 18 106 18q101 0 156.5 -53t55.5 -150v-319h-117v42l2 36h-2q1 0 -4 -9.5t-17 -22.5t-29 -26t-45 -22.5t-60 -9.5q-73 0 -123 43q-50 44 -50 116 zM155 153q0 -28 20.5 -47t56.5 -19q48 0 81 42q34 43 34 92v12h-22q-170 0 -170 -80zM405 593h-97v116h97v-116zM222 593h-98v116h98v-116z" />
			<glyph unicode="&#xe5;" horiz-adv-x="534" d="M27 147q0 100 119 147q34 13 68 17q57 9 115 9h17v7q0 90 -98 90q-63 0 -121 -37l-19 -12l-48 91q6 5 25 17q20 12 69 28q53 18 106 18q101 0 156.5 -53t55.5 -150v-319h-117v42l2 36h-2q1 0 -4 -9.5t-17 -22.5t-29 -26t-45 -22.5t-60 -9.5q-73 0 -123 43q-50 44 -50 116 zM155 153q0 -28 20.5 -47t56.5 -19q48 0 81 42q34 43 34 92v12h-22q-170 0 -170 -80zM264 561q-40 0 -67.5 21.5t-27.5 56.5q0 36 27.5 57.5t67.5 21.5t67 -21.5t27 -57.5q0 -35 -27.5 -56.5t-66.5 -21.5zM264 605q15 0 24.5 9.5t9.5 24.5q0 22 -17 31t-34 0t-17 -31 q0 -15 9 -24.5t25 -9.5z" />
			<glyph unicode="&#xe6;" horiz-adv-x="853" d="M27 147q0 99 114 145q32 14 67 18q61 10 121 10h17v7q0 90 -99 90q-63 0 -121 -37l-19 -12l-47 90q1 1 24 17q19 12 67 29q53 18 105 18q120 0 166 -75h2q61 75 170 75q105 0 164 -71q60 -70 60 -179l-2 -39h-349q6 -66 46.5 -101.5t103.5 -35.5q34 0 70.5 13t56.5 29 l19 13l50 -90q-11 -11 -36 -26q-76 -47 -169 -47q-147 0 -214 112h-2q-12 -28 -51 -64q-50 -47 -140 -47q-74 0 -124 43q-50 44 -50 115zM471 320h220q-1 48 -29 75.5t-70 27.5q-102 0 -121 -103zM155 153q0 -29 20.5 -47.5t57.5 -18.5q49 0 82 42q33 43 33 93v11h-36 q-157 0 -157 -80z" />
			<glyph unicode="&#xe7;" horiz-adv-x="546" d="M34 255q0 113 76 189q76 78 201 78q60 0 108 -19q51 -20 69 -38l19 -19l-56 -87l-17 15q-9 8 -46 24q-33 16 -70 16q-69 0 -112 -46q-43 -44 -43 -112q0 -67 44 -114q43 -46 115 -46q39 0 75 16q40 18 57 32l18 17l49 -90q-11 -11 -32 -27q-21 -14 -40 -24 q-56 -27 -122 -31l-7 -33q34 -4 53.5 -23.5t19.5 -52.5q0 -44 -30 -66t-78 -22q-35 0 -53 6l-8 1v70q22 -8 43 -8q44 0 44 28q0 27 -48 27l-21 -2l21 78q-104 14 -167 87q-62 74 -62 176z" />
			<glyph unicode="&#xe8;" horiz-adv-x="554" d="M34 255q0 119 72 192q74 75 187 75q107 0 166 -69q60 -67 60 -173l-3 -49h-352q6 -62 48.5 -98.5t104.5 -36.5q34 0 71 13t58 29l18 14l49 -91q-11 -11 -36 -26q-76 -47 -169 -47q-122 0 -199 77q-75 78 -75 190zM168 318h223q-1 49 -29 77.5t-72 28.5q-49 0 -81 -28 t-41 -78zM346 573h-103l-104 136h131z" />
			<glyph unicode="&#xe9;" horiz-adv-x="554" d="M34 255q0 119 72 192q74 75 187 75q107 0 166 -69q60 -67 60 -173l-3 -49h-352q6 -62 48.5 -98.5t104.5 -36.5q34 0 71 13t58 29l18 14l49 -91q-11 -11 -36 -26q-76 -47 -169 -47q-122 0 -199 77q-75 78 -75 190zM168 318h223q-1 49 -29 77.5t-72 28.5q-49 0 -81 -28 t-41 -78zM337 573h-102l76 136h131z" />
			<glyph unicode="&#xea;" horiz-adv-x="554" d="M34 255q0 119 72 192q74 75 187 75q107 0 166 -69q60 -67 60 -173l-3 -49h-352q6 -62 48.5 -98.5t104.5 -36.5q34 0 71 13t58 29l18 14l49 -91q-11 -11 -36 -26q-76 -47 -169 -47q-122 0 -199 77q-75 78 -75 190zM168 318h223q-1 49 -29 77.5t-72 28.5q-49 0 -81 -28 t-41 -78zM239 573h-105l92 136h127l93 -136h-105l-50 81h-2z" />
			<glyph unicode="&#xeb;" horiz-adv-x="554" d="M34 255q0 119 72 192q74 75 187 75q107 0 166 -69q60 -67 60 -173l-3 -49h-352q6 -62 48.5 -98.5t104.5 -36.5q34 0 71 13t58 29l18 14l49 -91q-11 -11 -36 -26q-76 -47 -169 -47q-122 0 -199 77q-75 78 -75 190zM168 318h223q-1 49 -29 77.5t-72 28.5q-49 0 -81 -28 t-41 -78zM431 593h-97v116h97v-116zM248 593h-98v116h98v-116z" />
			<glyph unicode="&#xec;" horiz-adv-x="267" d="M197 0h-127v510h127v-510zM188 573h-103l-104 136h131z" />
			<glyph unicode="&#xed;" horiz-adv-x="267" d="M197 0h-127v510h127v-510zM180 573h-102l76 136h131z" />
			<glyph unicode="&#xee;" horiz-adv-x="267" d="M82 573h-105l92 136h127l93 -136h-105l-50 81h-2zM197 0h-127v510h127v-510z" />
			<glyph unicode="&#xef;" horiz-adv-x="267" d="M274 593h-97v116h97v-116zM91 593h-98v116h98v-116zM197 0h-127v510h127v-510z" />
			<glyph unicode="&#xf0;" horiz-adv-x="585" d="M33 237q0 93 63 161q64 67 172 67q53 0 90 -22l12 -7h2q-28 63 -94 106l-185 -80l-6 75l111 49q-48 23 -115 40l35 100q129 -29 216 -83l148 63l6 -74l-88 -39q137 -120 137 -315q0 -54 -14.5 -103.5t-44 -92.5t-81.5 -68.5t-120 -25.5q-112 0 -178 74t-66 175zM161 234 q0 -59 32 -99t87 -40q64 0 96 48q33 48 33 112q0 49 -32.5 80t-85.5 31q-60 0 -95 -38t-35 -94z" />
			<glyph unicode="&#xf1;" horiz-adv-x="613" d="M222 574h-87q0 137 112 137q32 0 72.5 -32.5t53.5 -32.5q39 0 39 62h86q0 -137 -112 -137q-33 0 -73 32.5t-53 32.5q-38 0 -38 -62zM197 0h-127v510h122v-59l-2 -35h2q23 46 69.5 76t111.5 30q177 0 177 -194v-328h-126v302q0 53 -18.5 78.5t-62.5 25.5q-50 0 -86 -28 t-51 -76q-9 -27 -9 -68v-234z" />
			<glyph unicode="&#xf2;" d="M313 -12q-119 0 -200 75q-81 77 -81 192q0 116 81 191q80 76 199 76t199 -76q82 -75 82 -191q0 -115 -81 -192q-81 -75 -199 -75zM161 255q0 -69 44 -115q44 -44 108 -44q63 0 107 44q44 46 44 115q0 68 -44 114q-43 45 -107 45q-63 0 -108 -45q-44 -46 -44 -114z M367 573h-103l-104 136h131z" />
			<glyph unicode="&#xf3;" d="M313 -12q-119 0 -200 75q-81 77 -81 192q0 116 81 191q80 76 199 76t199 -76q82 -75 82 -191q0 -115 -81 -192q-81 -75 -199 -75zM161 255q0 -69 44 -115q44 -44 108 -44q63 0 107 44q44 46 44 115q0 68 -44 114q-43 45 -107 45q-63 0 -108 -45q-44 -46 -44 -114z M360 573h-102l76 136h131z" />
			<glyph unicode="&#xf4;" d="M313 -12q-119 0 -200 75q-81 77 -81 192q0 116 81 191q80 76 199 76t199 -76q82 -75 82 -191q0 -115 -81 -192q-81 -75 -199 -75zM161 255q0 -69 44 -115q44 -44 108 -44q63 0 107 44q44 46 44 115q0 68 -44 114q-43 45 -107 45q-63 0 -108 -45q-44 -46 -44 -114z M262 573h-105l92 136h127l93 -136h-105l-50 81h-2z" />
			<glyph unicode="&#xf5;" d="M218 574h-87q0 137 112 137q32 0 72.5 -32.5t53.5 -32.5q39 0 39 62h86q0 -137 -112 -137q-33 0 -73 32.5t-53 32.5q-38 0 -38 -62zM313 -12q-119 0 -200 75q-81 77 -81 192q0 116 81 191q80 76 199 76t199 -76q82 -75 82 -191q0 -115 -81 -192q-81 -75 -199 -75z M161 255q0 -69 44 -115q44 -44 108 -44q63 0 107 44q44 46 44 115q0 68 -44 114q-43 45 -107 45q-63 0 -108 -45q-44 -46 -44 -114z" />
			<glyph unicode="&#xf6;" d="M313 -12q-119 0 -200 75q-81 77 -81 192q0 116 81 191q80 76 199 76t199 -76q82 -75 82 -191q0 -115 -81 -192q-81 -75 -199 -75zM161 255q0 -69 44 -115q44 -44 108 -44q63 0 107 44q44 46 44 115q0 68 -44 114q-43 45 -107 45q-63 0 -108 -45q-44 -46 -44 -114z M453 593h-97v116h97v-116zM270 593h-98v116h98v-116z" />
			<glyph unicode="&#xf7;" d="M369 437h-114v108h114v-108zM573 236h-521v99h521v-99zM369 27h-114v108h114v-108z" />
			<glyph unicode="&#xf8;" d="M32 255q0 116 81 191q80 76 199 76q73 0 134 -31l40 56l55 -38l-39 -55q91 -76 91 -199q0 -115 -81 -192q-81 -75 -199 -75q-64 0 -127 26l-41 -57l-55 39l39 54q-97 76 -97 205zM161 255q0 -64 38 -108l180 251q-31 16 -66 16q-63 0 -108 -45q-44 -46 -44 -114zM464 255 q0 59 -33 101l-178 -248q29 -12 60 -12q63 0 107 44q44 46 44 115z" />
			<glyph unicode="&#xf9;" horiz-adv-x="609" d="M63 182v328h127v-302q0 -53 18 -78.5t61 -25.5q66 0 104 50q39 49 39 122v234h127v-510h-122v58l2 36h-2q-22 -45 -70.5 -75.5t-106.5 -30.5q-177 0 -177 194zM356 573h-103l-104 136h131z" />
			<glyph unicode="&#xfa;" horiz-adv-x="609" d="M63 182v328h127v-302q0 -53 18 -78.5t61 -25.5q66 0 104 50q39 49 39 122v234h127v-510h-122v58l2 36h-2q-22 -45 -70.5 -75.5t-106.5 -30.5q-177 0 -177 194zM348 573h-102l76 136h131z" />
			<glyph unicode="&#xfb;" horiz-adv-x="609" d="M63 182v328h127v-302q0 -53 18 -78.5t61 -25.5q66 0 104 50q39 49 39 122v234h127v-510h-122v58l2 36h-2q-22 -45 -70.5 -75.5t-106.5 -30.5q-177 0 -177 194zM250 573h-105l92 136h127l93 -136h-105l-50 81h-2z" />
			<glyph unicode="&#xfc;" horiz-adv-x="609" d="M63 182v328h127v-302q0 -53 18 -78.5t61 -25.5q66 0 104 50q39 49 39 122v234h127v-510h-122v58l2 36h-2q-22 -45 -70.5 -75.5t-106.5 -30.5q-177 0 -177 194zM442 593h-97v116h97v-116zM259 593h-98v116h98v-116z" />
			<glyph unicode="&#xfd;" horiz-adv-x="521" d="M14 -186l-13 9l42 95q29 -21 57 -21q60 0 88 66l19 45l-215 502h143l107 -294l19 -69h2q7 36 17 67l100 296h139l-228 -587q-26 -65 -74 -99t-110 -34q-56 0 -93 24zM309 573h-102l76 136h131z" />
			<glyph unicode="&#xfe;" horiz-adv-x="610" d="M197 -200h-127v910h127v-218l-2 -42h2q54 72 150 72q103 0 166 -76q63 -75 63 -191q0 -115 -65 -192q-64 -75 -166 -75q-56 0 -93.5 20.5t-49.5 41.5l-5 7h-2q2 -24 2 -44v-213zM193 254q0 -74 35 -116.5t94 -42.5q55 0 90.5 45t35.5 115t-34.5 114.5t-90.5 44.5 q-59 0 -94.5 -40.5t-35.5 -119.5z" />
			<glyph unicode="&#xff;" horiz-adv-x="521" d="M14 -186l-13 9l42 95q29 -21 57 -21q60 0 88 66l19 45l-215 502h143l107 -294l19 -69h2q7 36 17 67l100 296h139l-228 -587q-26 -65 -74 -99t-110 -34q-56 0 -93 24zM403 593h-97v116h97v-116zM220 593h-98v116h98v-116z" />
			<glyph unicode="&#x10a;" horiz-adv-x="716" d="M41 358q0 155 104 259q105 105 261 105q97 0 167 -34q61 -29 85 -53l10 -10l-62 -96l-26 20q-16 13 -67 34t-101 21q-109 0 -174 -71q-64 -70 -64 -173q0 -105 66 -180q66 -74 173 -74q63 0 115 26t82 54l9 10l68 -93q-8 -12 -46 -40q-29 -21 -57 -35q-80 -40 -176 -40 q-161 0 -264 106t-103 264zM452 782h-108v111h108v-111z" />
			<glyph unicode="&#x10b;" horiz-adv-x="545" d="M33 255q0 113 76 189q77 78 201 78q60 0 108 -19q50 -19 68 -38l20 -19l-56 -87l-17 15q-9 8 -46 24q-33 16 -70 16q-69 0 -112 -46q-43 -44 -43 -112q0 -67 44 -114q43 -46 115 -46q39 0 75 16q41 18 56 32l19 17l49 -90q-17 -17 -34 -29q-22 -15 -43 -25 q-56 -29 -133 -29q-125 0 -201 76t-76 191zM346 598h-108v111h108v-111z" />
			<glyph unicode="&#x120;" horiz-adv-x="760" d="M42 356q0 154 104 260q105 106 262 106q95 0 168 -32q55 -24 86 -48l10 -10l-64 -96q-16 13 -25 19q-14 10 -65 30q-48 19 -99 19q-116 0 -180 -70q-64 -68 -64 -174q0 -113 68 -184q67 -70 170 -70q49 0 92 18q48 21 65 38l21 18v83h-109v111h225v-374h-110v34l1 30h-2 q-8 -8 -35 -27q-70 -49 -171 -49q-145 0 -247 102q-101 104 -101 266zM452 782h-108v111h108v-111z" />
			<glyph unicode="&#x121;" horiz-adv-x="604" d="M84 -166l38 97q64 -33 141 -33q66 0 105 31t39 93v30l2 27h-2q-46 -69 -142 -69q-106 0 -168 74q-61 74 -61 184t60 182t166 72q98 0 146 -58l5 -7h3q-1 4 -1 14v39h119v-479q0 -63 -23 -111t-62 -75.5t-85.5 -41t-98.5 -13.5q-98 0 -181 44zM292 117q55 0 86.5 36.5 t31.5 113.5q0 147 -126 147q-57 0 -88.5 -38t-31.5 -104q0 -70 34.5 -112.5t93.5 -42.5zM347 598h-108v111h108v-111z" />
			<glyph unicode="&#x126;" horiz-adv-x="805" d="M240 0h-129v515h-61v83h61v112h129v-112h324v112h130v-112h62v-83h-62v-515h-130v298h-324v-298zM240 515v-106h324v106h-324z" />
			<glyph unicode="&#x127;" horiz-adv-x="613" d="M70 559h-66v76h66v75h127v-75h133v-76h-133v-95l-2 -43h2q22 44 69 72.5t107 28.5q177 0 177 -194v-328h-126v302q0 53 -18.5 78.5t-62.5 25.5q-48 0 -85.5 -29t-52.5 -77q-8 -29 -8 -66v-234h-127v559z" />
			<glyph unicode="&#x131;" horiz-adv-x="267" d="M197 0h-127v510h127v-510z" />
			<glyph unicode="&#x13f;" horiz-adv-x="539" d="M526 0h-436v710h129v-599h307v-111zM449 323h-123v126h123v-126z" />
			<glyph unicode="&#x140;" horiz-adv-x="392" d="M63 159v551h126v-532q0 -39 12 -54.5t40 -15.5l19 1v-111q-20 -3 -40 -3q-61 0 -104 26q-53 34 -53 138zM389 323h-123v126h123v-126z" />
			<glyph unicode="&#x152;" horiz-adv-x="968" d="M413 718q34 0 69 -4q36 -4 57 -4h370v-111h-297v-186h240v-111h-240v-191h313v-111h-386q-21 0 -57 -4q-43 -5 -69 -5q-158 0 -265 106q-108 107 -108 259q0 153 107 257q108 105 266 105zM173 356q0 -107 68 -181q69 -73 172 -73q39 0 63 6l8 1v492q-28 7 -71 7 q-103 0 -172 -73q-68 -74 -68 -179z" />
			<glyph unicode="&#x153;" horiz-adv-x="984" d="M309 522q136 0 211 -105h2q66 105 201 105q107 0 166 -69q60 -68 60 -173l-3 -49h-351q7 -64 48.5 -99.5t103.5 -35.5q34 0 71 13t58 29l18 14l49 -91q-11 -11 -36 -26q-76 -47 -169 -47q-142 0 -213 108h-2q-77 -108 -214 -108q-117 0 -197 74q-79 73 -79 192 q0 118 80 193q79 75 196 75zM598 318h223q-1 48 -28.5 77t-70.5 29q-49 0 -82 -28t-42 -78zM313 96q63 0 107 44t44 115t-44 115t-107 44q-65 0 -108 -45q-44 -44 -44 -115t44 -115q43 -43 108 -43z" />
			<glyph unicode="&#x160;" horiz-adv-x="554" d="M46 75l-10 10l70 97q9 -9 33 -26q70 -49 144 -49q44 0 73.5 23t29.5 63q0 58 -118 107q-35 14 -59.5 24.5t-57.5 30.5t-52.5 41t-34 52.5t-13.5 67.5q0 88 68 147t170 59q64 0 115 -19q55 -20 75 -38l22 -19l-56 -105q-2 2 -5.5 4.5t-8.5 6t-8 6.5q-16 13 -54 28 q-42 17 -81 17q-46 0 -76.5 -24t-30.5 -61q0 -58 118 -103q35 -13 59.5 -24t56.5 -30.5t52 -41t34 -53.5t14 -70q0 -88 -64 -148q-63 -60 -170 -60q-81 0 -143.5 29t-91.5 58zM344 757h-127l-92 136h105l50 -81h2l50 81h105z" />
			<glyph unicode="&#x161;" horiz-adv-x="452" d="M48 44l-21 19l58 89l17 -16q10 -8 48 -25q38 -15 74 -15q29 0 48 12.5t19 33.5q0 20 -25.5 36.5t-62 30.5t-73 32.5t-62 52t-25.5 78.5q0 69 55 109q56 41 140 41q48 0 91.5 -13.5t62.5 -30.5l17 -14l-47 -94l-15 12q-12 9 -43 20q-31 12 -67 12q-28 0 -46.5 -12 t-18.5 -34q0 -19 25.5 -34.5t62 -29.5t73 -32t62 -51.5t25.5 -79.5q0 -66 -53 -110q-52 -43 -142 -43q-57 0 -106 18q-50 20 -71 38zM291 573h-127l-92 136h105l50 -81h2l50 81h105z" />
			<glyph unicode="&#x178;" horiz-adv-x="605" d="M367 0h-129v297l-236 413h146l111 -209q21 -37 41 -93l2 -2h2q17 46 43 95l110 209h146l-236 -413v-297zM444 777h-97v116h97v-116zM261 777h-98v116h98v-116z" />
			<glyph unicode="&#x17b;" horiz-adv-x="614" d="M571 0h-533v83l315 452q24 36 45 57l7 7v2q-26 -2 -53 -2h-298v111h513v-82l-315 -453q-24 -36 -45 -57l-7 -7v-2q26 2 53 2h318v-111zM372 782h-108v111h108v-111z" />
			<glyph unicode="&#x17c;" horiz-adv-x="524" d="M486 0h-451v68l229 287q18 23 38 41l5 6v2q-20 -2 -47 -2h-215v108h434v-69l-229 -287q-13 -17 -38 -42l-6 -5v-2q15 3 48 3h232v-108zM311 598h-108v111h108v-111z" />
			<glyph unicode="&#x17d;" horiz-adv-x="614" d="M571 0h-533v83l315 452q24 36 45 57l7 7v2q-26 -2 -53 -2h-298v111h513v-82l-315 -453q-24 -36 -45 -57l-7 -7v-2q26 2 53 2h318v-111zM381 757h-127l-92 136h105l50 -81h2l50 81h105z" />
			<glyph unicode="&#x17e;" horiz-adv-x="524" d="M486 0h-451v68l229 287q18 23 38 41l5 6v2q-20 -2 -47 -2h-215v108h434v-69l-229 -287q-13 -17 -38 -42l-6 -5v-2q15 3 48 3h232v-108zM320 573h-127l-92 136h105l50 -81h2l50 81h105z" />
			<glyph unicode="&#x192;" horiz-adv-x="569" d="M20 -110v108q44 -6 67 -6q98 0 106 92l22 250h-75v101h83l10 97q10 95 65 139q24 20 54 32q49 19 105 19l86 -8v-108q-50 7 -78 7q-98 0 -107 -93l-8 -85h108v-101h-117l-23 -262q-5 -58 -29.5 -98.5t-62.5 -59.5q-63 -31 -132 -31z" />
			<glyph unicode="&#x2c6;" horiz-adv-x="494" d="M196 757h-105l92 136h127l93 -136h-105l-50 81h-2z" />
			<glyph unicode="&#x2c7;" horiz-adv-x="494" d="M310 757h-127l-92 136h105l50 -81h2l50 81h105z" />
			<glyph unicode="&#x2d8;" horiz-adv-x="493" d="M247 753q-65 0 -107 34.5t-42 93.5v12h90v-12q0 -28 16.5 -43.5t42.5 -15.5q24 0 41 16t17 44v11h90v-12q0 -59 -42 -93.5t-106 -34.5z" />
			<glyph unicode="&#x2d9;" horiz-adv-x="494" d="M301 782h-108v111h108v-111z" />
			<glyph unicode="&#x2da;" horiz-adv-x="494" d="M247 745q-40 0 -67.5 21.5t-27.5 56.5q0 36 27.5 57.5t67.5 21.5t67 -21.5t27 -57.5q0 -35 -27.5 -56.5t-66.5 -21.5zM247 789q15 0 24.5 9.5t9.5 24.5q0 22 -17 31t-34 0t-17 -31q0 -15 9 -24.5t25 -9.5z" />
			<glyph unicode="&#x2db;" horiz-adv-x="494" d="M160 -112q0 36 25 70q24 33 51 50l26 17l72 -13l-20 -16q-13 -13 -30 -34q-19 -23 -19 -40q0 -13 11.5 -22t25.5 -12l12 -2l-31 -94q-12 0 -43 10q-33 9 -56.5 30t-23.5 56z" />
			<glyph unicode="&#x2dc;" horiz-adv-x="493" d="M152 758h-87q0 137 112 137q32 0 72.5 -32.5t53.5 -32.5q39 0 39 62h86q0 -137 -112 -137q-33 0 -73 32.5t-53 32.5q-38 0 -38 -62z" />
			<glyph unicode="&#x2dd;" horiz-adv-x="493" d="M331 757h-97l76 136h125zM164 757h-105l71 136h108z" />
			<glyph unicode="&#x2000;" horiz-adv-x="451" />
			<glyph unicode="&#x2001;" horiz-adv-x="902" />
			<glyph unicode="&#x2002;" horiz-adv-x="451" />
			<glyph unicode="&#x2003;" horiz-adv-x="902" />
			<glyph unicode="&#x2004;" horiz-adv-x="300" />
			<glyph unicode="&#x2005;" horiz-adv-x="225" />
			<glyph unicode="&#x2006;" horiz-adv-x="150" />
			<glyph unicode="&#x2007;" horiz-adv-x="150" />
			<glyph unicode="&#x2008;" horiz-adv-x="112" />
			<glyph unicode="&#x2009;" horiz-adv-x="180" />
			<glyph unicode="&#x200a;" horiz-adv-x="50" />
			<glyph unicode="&#x2010;" horiz-adv-x="457" d="M379 230h-301v111h301v-111z" />
			<glyph unicode="&#x2011;" horiz-adv-x="457" d="M379 230h-301v111h301v-111z" />
			<glyph unicode="&#x2012;" horiz-adv-x="457" d="M379 230h-301v111h301v-111z" />
			<glyph unicode="&#x2013;" horiz-adv-x="709" d="M631 236h-553v99h553v-99z" />
			<glyph unicode="&#x2014;" horiz-adv-x="909" d="M831 236h-753v99h753v-99z" />
			<glyph unicode="&#x2018;" horiz-adv-x="237" d="M157 504h-117l75 218h89z" />
			<glyph unicode="&#x2019;" horiz-adv-x="231" d="M134 503h-90l47 219h117z" />
			<glyph unicode="&#x201a;" horiz-adv-x="250" d="M118 -89h-86l47 218h114z" />
			<glyph unicode="&#x201c;" horiz-adv-x="401" d="M321 504h-117l74 218h90zM157 504h-117l75 218h90z" />
			<glyph unicode="&#x201d;" horiz-adv-x="395" d="M298 503h-90l47 219h117zM134 503h-90l47 219h118z" />
			<glyph unicode="&#x201e;" horiz-adv-x="409" d="M278 -89h-86l47 218h113zM118 -89h-86l47 218h114z" />
			<glyph unicode="&#x2020;" horiz-adv-x="444" d="M282 -50h-122v461h-124v99h124v200h122v-200h126v-99h-126v-461z" />
			<glyph unicode="&#x2021;" horiz-adv-x="476" d="M176 163h-124v98h124v150h-124v99h124v200h122v-200h126v-99h-126v-150h126v-98h-126v-213h-122v213z" />
			<glyph unicode="&#x2022;" horiz-adv-x="416" d="M208 124q-69 0 -118 49t-49 118t49 118t118 49q70 0 118 -49q49 -49 49 -118t-49 -118q-48 -49 -118 -49z" />
			<glyph unicode="&#x2026;" horiz-adv-x="822" d="M757 0h-123v127h123v-127zM472 0h-123v127h123v-127zM187 0h-122v127h122v-127z" />
			<glyph unicode="&#x202f;" horiz-adv-x="180" />
			<glyph unicode="&#x2030;" horiz-adv-x="1165" d="M38 564q0 64 48 111q49 47 115 47t115 -47q49 -46 49 -111q0 -66 -48 -112q-47 -46 -116 -46t-116 46q-47 47 -47 112zM180 0h-117l545 710h117zM268 564q0 27 -19.5 46.5t-47.5 19.5t-47 -19.5t-19 -46.5q0 -28 19 -47t47 -19t47.5 19t19.5 47zM962 303q66 0 115 -47 q49 -46 49 -111t-48 -111q-47 -46 -116 -46t-116 46q-47 47 -47 111t47 111q49 47 116 47zM589 303q66 0 115 -47q48 -46 48 -111t-48 -111q-46 -46 -115 -46t-116 46q-47 47 -47 111t47 111q49 47 116 47zM896 146q0 -28 19 -47t47 -19t47.5 19t19.5 47q0 27 -19.5 46.5 t-47.5 19.5t-47 -19.5t-19 -46.5zM523 146q0 -28 19 -47t47 -19t47.5 19t19.5 47q0 27 -19.5 46.5t-47.5 19.5t-47 -19.5t-19 -46.5z" />
			<glyph unicode="&#x2039;" horiz-adv-x="360" d="M320 77h-121l-164 205l164 206h121l-164 -206z" />
			<glyph unicode="&#x203a;" horiz-adv-x="360" d="M161 77h-121l164 205l-164 206h121l164 -206z" />
			<glyph unicode="&#x2044;" horiz-adv-x="179" d="M303 710l-335 -710h-93l336 710h92z" />
			<glyph unicode="&#x205f;" horiz-adv-x="225" />
			<glyph unicode="&#x20ac;" horiz-adv-x="589" d="M100 250h-69v76h56q-5 28 -1 62h-55v77h69q33 115 126 185q94 72 216 72q55 0 93 -10l14 -3l-31 -117q-36 10 -79 10q-71 0 -124 -36.5t-77 -100.5h255l-15 -77h-258q-4 -24 1 -62h244l-15 -76h-207q24 -64 78 -102t123 -38q40 0 80 10l12 4l24 -118q-51 -18 -118 -18 q-128 0 -219 72q-92 72 -123 190z" />
			<glyph unicode="&#x2122;" horiz-adv-x="946" d="M531 267h-95l35 443h89l91 -209l14 -42h2q7 28 13 42l92 209h88l34 -443h-95l-17 228l1 31h-2l-78 -178h-75l-78 178h-2l1 -31zM262 267h-96v359h-148v84h391v-84h-147v-359z" />
			<glyph unicode="&#x221e;" horiz-adv-x="517" d="M449 349q0 -78 -56 -136q-56 -56 -134 -56t-136 56q-56 58 -56 136q0 79 56 135q58 56 136 56t134 -56t56 -135z" />
			<glyph unicode="&#x2248;" horiz-adv-x="619" d="M104 322l-49 74q73 76 156 76q49 0 107 -35q59 -35 91 -35q58 0 107 55l50 -75q-76 -76 -157 -76q-49 0 -108 35q-58 35 -90 35q-55 0 -107 -54zM104 117l-49 75q75 75 156 75q49 0 107 -35q59 -35 91 -35q58 0 107 55l50 -75q-76 -75 -157 -75q-49 0 -108 35 q-58 35 -90 35q-55 0 -107 -55z" />
			<glyph unicode="&#x2260;" horiz-adv-x="619" d="M180 24l-62 39l49 71h-101v98h165l74 107h-239v98h304l76 112l61 -40l-50 -72h97v-98h-161l-74 -107h235v-98h-299z" />
			<glyph unicode="&#x2264;" horiz-adv-x="619" d="M545 31l-481 214v82l481 214v-111l-347 -143v-2l347 -143v-111zM66 -183v98h479v-98h-479z" />
			<glyph unicode="&#x2265;" horiz-adv-x="619" d="M556 245l-481 -214v111l347 143v2l-347 143v111l481 -214v-82zM75 -183v98h480v-98h-480z" />
			<glyph unicode="&#x25fc;" horiz-adv-x="510" d="M0 510h510v-510h-510v510z" />
			</font>
</defs>
</svg>
