<?xml version="1.0" standalone="no"?>
<!DOCTYPE svg PUBLIC "-//W3C//DTD SVG 1.1//EN" "http://www.w3.org/Graphics/SVG/1.1/DTD/svg11.dtd" >
<svg xmlns="http://www.w3.org/2000/svg" version="1.1">
	<metadata></metadata>
	<defs>
		<font id="museo_sans900" horiz-adv-x="636">
			<font-face units-per-em="1000" ascent="774" descent="-226" />
			<missing-glyph horiz-adv-x="229" />
			<glyph unicode="&#xfb01;" horiz-adv-x="685" d="M621 0h-173v380h-179v-380h-173v380h-63v135h63v12q0 92 58 141q28 21 59 32q56 19 119 19l52 -3v-146q-16 2 -28 2q-87 0 -87 -50v-7h352v-515zM619 580h-169v135h169v-135z" />
			<glyph unicode="&#xfb02;" horiz-adv-x="707" d="M269 0h-173v371h-63v135h63v21q0 92 58 141q28 21 59 32q56 19 119 19l52 -3v-146q-16 2 -28 2q-87 0 -87 -50v-16h95v-135h-95v-371zM441 190v525h173v-502q0 -39 9.5 -52.5t38.5 -13.5l21 1v-150q-24 -3 -52 -3q-78 0 -129 32q-61 39 -61 163z" />
			<glyph horiz-adv-x="0" />
			<glyph horiz-adv-x="333" />
			<glyph unicode=" " horiz-adv-x="229" />
			<glyph unicode="&#x09;" horiz-adv-x="229" />
			<glyph unicode="&#xa0;" horiz-adv-x="229" />
			<glyph unicode="!" horiz-adv-x="366" d="M257 221h-148l-16 494h180zM262 0h-158v150h158v-150z" />
			<glyph unicode="&#x22;" horiz-adv-x="413" d="M363 490h-122v240h122v-240zM172 490h-122v240h122v-240z" />
			<glyph unicode="#" horiz-adv-x="699" d="M235 0h-134l31 180h-101l20 120h101l17 95h-99l20 120h99l35 200h134l-35 -200h108l35 200h134l-35 -200h105l-20 -120h-105l-17 -95h103l-20 -120h-103l-31 -180h-134l31 180h-108zM303 395l-17 -95h108l17 95h-108z" />
			<glyph unicode="$" horiz-adv-x="592" d="M47 82l-8 8l92 133l25 -21q17 -13 61 -33q46 -20 85 -20q33 0 54 14.5t21 42.5q0 34 -115 79q-41 16 -72.5 33t-66 44t-53.5 64.5t-18 81.5q0 81 52.5 139t138.5 74v94h109v-91q51 -6 97.5 -24.5t66.5 -37.5l19 -16l-74 -143q-3 3 -23 17q-16 12 -56 28q-40 18 -79 18 q-32 0 -54 -14.5t-22 -41.5q0 -21 29 -39.5t85 -40.5q213 -72 211 -220q0 -82 -54 -143q-52 -60 -146 -75v-91h-109v91q-116 17 -196 90z" />
			<glyph unicode="%" horiz-adv-x="852" d="M210 382q-76 0 -129 50q-52 49 -52 122q0 71 53 122q52 51 128 51t128 -51q53 -51 53 -122q0 -72 -53 -122t-128 -50zM221 0h-152l552 715h152zM265 555q0 21 -16.5 36.5t-38.5 15.5t-38.5 -15.5t-16.5 -36.5q0 -22 16 -37.5t39 -15.5t39 15.5t16 37.5zM456 160 q0 71 53 122t128 51t128 -51t53 -122q0 -72 -53 -122t-128 -50q-76 0 -129 50q-52 49 -52 122zM582 161q0 -22 16 -37.5t39 -15.5t39 15.5t16 37.5q0 21 -16.5 36.5t-38.5 15.5t-38.5 -15.5t-16.5 -36.5z" />
			<glyph unicode="&#x26;" horiz-adv-x="704" d="M39 207q0 55 31.5 102.5t82.5 68.5v2q-1 1 -4.5 3t-10 6t-15.5 12q-54 50 -54 133q0 97 68 145q69 48 168 48q46 0 89 -9l14 -3l-40 -137q-16 4 -39 4q-37 0 -60 -19.5t-23 -54.5q0 -30 20 -49.5t53 -19.5h87v88h172v-88h89v-150h-89v-69q0 -100 -73 -166t-200 -66 q-119 0 -193 62q-73 63 -73 157zM218 218q0 -29 25 -50t62 -21q47 0 74 23t27 60v59h-98q-90 0 -90 -71z" />
			<glyph unicode="'" horiz-adv-x="225" d="M175 490h-125v240h125v-240z" />
			<glyph unicode="(" horiz-adv-x="336" d="M324 -95h-142q-124 196 -124 442q0 213 124 403h142q-113 -190 -113 -403q0 -227 113 -442z" />
			<glyph unicode=")" horiz-adv-x="336" d="M154 -95h-142q113 215 113 442q0 213 -113 403h142q124 -190 124 -403q0 -246 -124 -442z" />
			<glyph unicode="*" horiz-adv-x="462" d="M230 406l-55 -97l-122 88l75 83v2l-110 23l46 143l102 -45l-11 112h152l-12 -112l103 46l47 -143l-111 -23v-2l76 -83l-122 -89l-56 97h-2z" />
			<glyph unicode="+" horiz-adv-x="628" d="M246 222h-205v130h205v223h136v-223h205v-130h-205v-222h-136v222z" />
			<glyph unicode="," horiz-adv-x="288" d="M133 -111h-127l75 277h165z" />
			<glyph unicode="-" horiz-adv-x="448" d="M381 212h-314v150h314v-150z" />
			<glyph unicode="." horiz-adv-x="280" d="M222 0h-164v164h164v-164z" />
			<glyph unicode="/" horiz-adv-x="434" d="M165 -42h-144l256 792h144z" />
			<glyph unicode="0" horiz-adv-x="640" d="M447 16q-52 -28 -127 -28t-128 28q-95 52 -127 198q-14 67 -14 145q0 77 14 144q32 146 127 196q53 28 128 28t127 -28q96 -49 128 -196q14 -67 14 -144q0 -78 -14 -145q-32 -146 -128 -198zM409 359q0 208 -89 208t-89 -208q0 -211 89 -211t89 211z" />
			<glyph unicode="1" horiz-adv-x="555" d="M532 0h-476v150h152v298l1 55h-2q-10 -21 -28 -38l-43 -39l-101 108l193 181h151v-565h153v-150z" />
			<glyph unicode="2" horiz-adv-x="601" d="M551 0h-495q-8 48 -8 77q0 61 23 115q21 48 51.5 81t79.5 71q19 15 55.5 39.5t53 37.5t31.5 32t15 38q0 34 -22 52.5t-55 18.5q-28 0 -54.5 -18t-39.5 -39l-12 -19l-130 87q12 25 35 53q24 28 48 47q28 23 74 38.5t95 15.5q98 0 171 -57q73 -55 73 -162q0 -59 -28 -110.5 t-74 -86.5q-23 -17 -81 -54t-83.5 -60.5t-26.5 -46.5h304v-150z" />
			<glyph unicode="3" horiz-adv-x="587" d="M40 72l-10 10l84 135q11 -11 20 -18q12 -9 51 -28q39 -18 76 -18q46 0 74 20t28 51q0 79 -133 79h-50l-37 85l94 113q39 47 54 59l8 8v2q-25 -5 -68 -5h-171v150h451v-109l-145 -167q79 -16 126 -74t47 -133q0 -101 -70 -172q-69 -72 -195 -72q-92 0 -156 33 q-57 30 -78 51z" />
			<glyph unicode="4" horiz-adv-x="644" d="M343 173h-317v106l276 436h214v-397h85v-145h-85v-173h-173v173zM204 320v-2h139v160l6 80h-2q-15 -43 -35 -74z" />
			<glyph unicode="5" horiz-adv-x="584" d="M48 72l-10 10l84 135q11 -11 20 -18q12 -9 51 -28q37 -18 74 -18q41 0 70.5 24t29.5 64q0 41 -31.5 65t-82.5 24q-48 0 -84 -18l-12 -6l-93 35l29 374h400v-150h-248l-4 -66l-4 -28h2q24 7 52 7q122 0 189 -67q67 -66 67 -168q0 -111 -74 -183q-73 -72 -191 -72 q-91 0 -155 33q-55 29 -79 51z" />
			<glyph unicode="6" horiz-adv-x="619" d="M336 -12q-118 0 -204 89t-86 253q0 152 86 271q43 58 109.5 92t145.5 34q91 0 141 -23l17 -8l-47 -150q-47 21 -98 21q-115 0 -154 -118h2q13 9 43.5 17t54.5 8q105 0 170 -74q64 -73 64 -171t-67 -169q-66 -72 -177 -72zM336 148q32 0 52 23t20 57q0 45 -28 75t-80 30 q-74 0 -74 -43q0 -60 35 -101t75 -41z" />
			<glyph unicode="7" horiz-adv-x="567" d="M247 0h-182l251 501q23 44 40 59l6 6v2q-10 -3 -46 -3h-282v150h513v-122z" />
			<glyph unicode="8" horiz-adv-x="623" d="M44 210q0 42 22 82q29 56 77 92q-65 56 -65 137q0 86 61 146q62 60 179 60q103 0 173 -56q69 -55 69 -151q0 -74 -70 -163q84 -59 84 -151q0 -90 -70 -154t-195 -64q-124 0 -195 65q-70 66 -70 157zM395 215q0 26 -34 47q-20 14 -34 20l-21 9q-9 5 -45 21 q-38 -41 -38 -87q0 -35 25 -59t61 -24q40 0 63 19t23 54zM249 517q0 -31 25.5 -51t89.5 -47q25 46 25 88q0 30 -20 48t-55 18q-31 0 -48 -15t-17 -41z" />
			<glyph unicode="9" horiz-adv-x="619" d="M232 -12q-90 0 -140 24l-18 7l47 150q46 -21 98 -21q115 0 154 118h-2q-12 -10 -42 -17.5t-56 -7.5q-106 0 -170 73t-64 172q0 97 66 169q67 72 178 72q118 0 204 -89t86 -253q0 -153 -87 -271q-42 -58 -108.5 -92t-145.5 -34zM319 382q74 0 74 43q0 60 -35 101t-75 41 q-32 0 -52 -23t-20 -57q0 -45 28 -75t80 -30z" />
			<glyph unicode=":" horiz-adv-x="300" d="M232 351h-164v164h164v-164zM232 0h-164v164h164v-164z" />
			<glyph unicode=";" horiz-adv-x="302" d="M241 351h-158v164h158v-164zM141 -111h-128l65 277h166z" />
			<glyph unicode="&#x3c;" horiz-adv-x="631" d="M564 11l-504 223v107l504 223v-145l-330 -131v-2l330 -130v-145z" />
			<glyph unicode="=" horiz-adv-x="646" d="M576 337h-506v130h506v-130zM576 107h-506v130h506v-130z" />
			<glyph unicode="&#x3e;" horiz-adv-x="631" d="M571 234l-504 -223v145l330 130v2l-330 131v145l504 -223v-107z" />
			<glyph unicode="?" horiz-adv-x="501" d="M289 221h-166v50q0 72 55 120q9 8 33.5 28.5t35.5 31.5t22 28.5t11 34.5q0 25 -21 42t-50 17q-20 0 -44 -10t-38 -22l-13 -11l-96 117q15 15 35 29q79 54 174 54q91 0 162 -53t71 -143q0 -88 -61 -144q-9 -8 -36.5 -31.5t-38.5 -35t-23 -30.5t-12 -36v-36zM285 0h-158 v150h158v-150z" />
			<glyph unicode="@" horiz-adv-x="865" d="M437 615q157 0 227 -67q71 -66 71 -173v-198h74v-119h-283q-105 0 -167 54q-60 54 -60 128q0 71 59 124q59 52 168 52h49q0 30 -42 47t-93 17q-95 0 -161 -74t-66 -167q0 -102 67 -170q68 -69 185 -69v-130q-191 0 -307 105q-114 105 -114 264t112 267q112 109 281 109z M536 177h39v134h-37q-42 3 -59.5 -32t-0.5 -70t58 -32z" />
			<glyph unicode="A" horiz-adv-x="662" d="M666 0h-180l-44 150h-223l-43 -150h-180l243 715h184zM361 429l-29 123h-2q-19 -89 -29 -123l-41 -139h141z" />
			<glyph unicode="B" horiz-adv-x="659" d="M347 0h-263v715h263q112 0 177.5 -49t65.5 -138q0 -46 -22 -87.5t-61 -64.5v-2q55 -17 83.5 -61t28.5 -100q0 -108 -77 -161q-76 -52 -195 -52zM259 565v-127h90q30 0 46.5 18.5t16.5 47.5q0 28 -17 44.5t-49 16.5h-87zM259 298v-148h105q35 0 55.5 21t20.5 54t-19.5 53 t-55.5 20h-106z" />
			<glyph unicode="C" horiz-adv-x="720" d="M35 359q0 157 107 262q106 106 268 106q99 0 171 -36q64 -32 87 -55l10 -10l-81 -132q-17 14 -25 20q-18 13 -63 32q-47 21 -91 21q-98 0 -150 -60q-52 -59 -52 -144q0 -87 54 -151t148 -64q50 0 95 22q51 24 71 44l24 22l90 -128q-9 -12 -48 -42q-28 -20 -58 -36 q-82 -42 -182 -42q-166 0 -271 105q-104 106 -104 266z" />
			<glyph unicode="D" horiz-adv-x="746" d="M338 0h-254v715h254q169 0 269 -95q100 -94 100 -261q0 -168 -100 -264q-100 -95 -269 -95zM259 565v-415h72q93 0 144 54t51 155q0 99 -51.5 152.5t-143.5 53.5h-72z" />
			<glyph unicode="E" horiz-adv-x="588" d="M546 0h-462v715h448v-150h-273v-130h218v-150h-218v-135h287v-150z" />
			<glyph unicode="F" horiz-adv-x="549" d="M259 0h-175v715h438v-150h-263v-150h218v-150h-218v-265z" />
			<glyph unicode="G" horiz-adv-x="770" d="M36 359q0 157 106 262q106 106 269 106q104 0 176 -34q58 -24 89 -51l10 -10l-84 -131q-6 6 -23 18t-61 29q-44 19 -90 19q-107 0 -159 -58q-52 -56 -52 -144q0 -99 59 -158q61 -59 146 -59q34 0 71 12.5t57 26.5l17 13v55h-101v149h256v-404h-146v20l1 30h-2 q-6 -6 -23 -18q-14 -10 -63 -27q-51 -17 -102 -17q-144 0 -248 101q-103 100 -103 270z" />
			<glyph unicode="H" horiz-adv-x="778" d="M259 0h-175v715h175v-286h260v286h175v-715h-175v280h-260v-280z" />
			<glyph unicode="I" horiz-adv-x="343" d="M259 0h-175v715h175v-715z" />
			<glyph unicode="J" horiz-adv-x="575" d="M21 220v52h175v-38q0 -40 14 -60q17 -26 52 -26q63 0 63 76v341h-192v150h367v-495q0 -110 -71 -172q-71 -60 -169 -60t-168 61q-71 62 -71 171z" />
			<glyph unicode="K" horiz-adv-x="692" d="M259 0h-175v715h175v-276h72l148 276h188l-193 -342v-2l204 -371h-196l-151 290h-72v-290z" />
			<glyph unicode="L" horiz-adv-x="563" d="M551 0h-467v715h175v-565h292v-150z" />
			<glyph unicode="M" horiz-adv-x="903" d="M238 0h-176l59 715h190l104 -302l36 -118h2q19 70 36 118l104 302h190l58 -715h-175l-22 322q-4 39 -1 102l1 18h-2q-27 -86 -40 -120l-75 -207h-150l-75 207l-40 120h-2q4 -66 0 -120z" />
			<glyph unicode="N" horiz-adv-x="772" d="M259 0h-175v715h177l198 -334q25 -45 51 -102l9 -20h2q-8 82 -8 122v334h175v-715h-176l-199 333q-25 45 -51 102l-9 20h-2q8 -82 8 -122v-333z" />
			<glyph unicode="O" horiz-adv-x="818" d="M35 362q0 155 106 260q107 105 268 105t267 -105q107 -105 107 -260q0 -158 -107 -267q-107 -107 -267 -107q-161 0 -268 107q-106 107 -106 267zM216 362q0 -91 56 -153q55 -61 137 -61t137 61q56 62 56 153q0 87 -56 146t-137 59t-137 -59t-56 -146z" />
			<glyph unicode="P" horiz-adv-x="634" d="M259 0h-175v715h297q103 0 168 -69q65 -70 65 -177q0 -108 -65 -179q-65 -69 -168 -69h-122v-221zM259 565v-194h86q43 0 67 26.5t24 71.5t-23 70.5t-65 25.5h-89z" />
			<glyph unicode="Q" horiz-adv-x="828" d="M35 362q0 155 106 260q107 105 268 105t267 -105q107 -105 107 -260q0 -111 -71 -212l75 -61l-99 -111l-73 69q-91 -59 -206 -59q-161 0 -268 107q-106 107 -106 267zM216 362q0 -91 56 -153q55 -61 137 -61q47 0 78 16l-73 64l98 111l71 -69q19 42 19 92q0 87 -56 146 t-137 59t-137 -59t-56 -146z" />
			<glyph unicode="R" horiz-adv-x="685" d="M259 0h-175v715h249q94 0 139 -17q63 -24 97.5 -78t34.5 -130q0 -62 -28.5 -115.5t-78.5 -79.5v-2q11 -15 27 -43l139 -250h-195l-127 241h-82v-241zM259 565v-174h76q43 0 67 23t24 65q0 46 -23.5 66t-84.5 20h-59z" />
			<glyph unicode="S" horiz-adv-x="580" d="M42 80l-11 10l92 133l25 -21q17 -13 61 -33q46 -20 85 -20q33 0 54 14.5t21 42.5q0 12 -8.5 22.5t-26 20.5t-34.5 17.5t-45 19t-47 20.5q-73 33 -117 80t-44 122q0 96 72 158q73 61 181 61q68 0 125 -21q57 -19 81 -40l24 -20l-74 -143q-3 3 -23 17q-16 12 -56 28 q-41 18 -79 18q-32 0 -54 -14.5t-22 -41.5q0 -22 29 -40.5t84 -39.5q32 -11 57.5 -22.5t55.5 -31t50 -41.5t33.5 -54.5t12.5 -70.5q0 -93 -68 -158q-67 -64 -184 -64q-93 0 -165 36q-66 34 -85 56z" />
			<glyph unicode="T" horiz-adv-x="617" d="M396 0h-175v565h-217v150h609v-150h-217v-565z" />
			<glyph unicode="U" horiz-adv-x="746" d="M74 263v452h175v-452q0 -54 33.5 -84.5t90.5 -30.5t90.5 30.5t33.5 84.5v452h175v-452q0 -123 -82 -199t-216 -76q-136 0 -218 76t-82 199z" />
			<glyph unicode="V" horiz-adv-x="675" d="M429 0h-182l-253 715h190l126 -407q15 -50 24 -96l3 -19h2q13 69 27 115l128 407h187z" />
			<glyph unicode="W" horiz-adv-x="998" d="M392 0h-197l-174 715h184l90 -447q9 -49 9 -66v-9h2q2 31 12 75l110 447h141l107 -447q10 -37 12 -66v-9h2q0 31 9 75l98 447h181l-181 -715h-195l-90 361l-14 84h-2q-3 -34 -14 -84z" />
			<glyph unicode="X" horiz-adv-x="675" d="M210 0h-194l217 355l-218 360h199l78 -147l44 -92h2q21 50 44 92l79 147h199l-219 -360l218 -355h-195l-82 150l-44 89h-2q-24 -54 -44 -89z" />
			<glyph unicode="Y" horiz-adv-x="639" d="M407 0h-175v293l-236 422h199l81 -172l43 -103h2q15 41 43 103l80 172h199l-236 -422v-293z" />
			<glyph unicode="Z" horiz-adv-x="638" d="M596 0h-558v110l276 391q26 37 48 59l7 6v2q-22 -3 -55 -3h-263v150h540v-108l-277 -393q-29 -41 -48 -58l-7 -7v-2q23 3 55 3h282v-150z" />
			<glyph unicode="[" horiz-adv-x="370" d="M331 -95h-246v845h246v-120h-102v-605h102v-120z" />
			<glyph unicode="\" horiz-adv-x="434" d="M413 -42h-144l-256 792h144z" />
			<glyph unicode="]" horiz-adv-x="370" d="M39 -95v120h102v605h-102v120h246v-845h-246z" />
			<glyph unicode="^" horiz-adv-x="630" d="M203 241h-145l203 474h107l203 -474h-145l-112 300z" />
			<glyph unicode="_" horiz-adv-x="622" d="M13 -130v130h596v-130h-596z" />
			<glyph unicode="`" horiz-adv-x="484" d="M368 761h-134l-118 150h171z" />
			<glyph unicode="a" horiz-adv-x="560" d="M25 154q0 51 33 88t88 52q93 27 178 27h7v9q0 57 -76 57q-54 0 -119 -37l-20 -12l-60 122q20 15 28 19q22 12 75 29q56 19 113 19q109 0 170.5 -56t61.5 -154v-317h-158v31l2 32h-2q-15 -20 -21 -26q-47 -49 -125 -49q-74 0 -125 45q-50 47 -50 121zM199 163 q0 -19 13 -31t36 -12q33 0 59 29t26 62v11h-16q-50 0 -84 -15t-34 -44z" />
			<glyph unicode="b" horiz-adv-x="637" d="M226 0h-162v715h173v-199l-2 -44h2q5 6 15 15t47 24q36 16 77 16q105 0 168 -75q64 -73 64 -195q0 -121 -68 -195t-172 -74q-39 0 -75 13.5t-52 30.5l-14 14h-2q1 -9 1 -29v-17zM232 254q0 -52 27.5 -87.5t73.5 -35.5q44 0 72.5 33.5t28.5 89.5q0 57 -28 92t-73 35 t-73 -33t-28 -94z" />
			<glyph unicode="c" horiz-adv-x="551" d="M26 258q0 109 77 189q78 80 210 80q72 0 124.5 -23.5t72.5 -46.5l8 -8l-73 -116q-9 9 -16 14q-14 10 -42 22q-33 14 -63 14q-56 0 -89.5 -35.5t-33.5 -87.5q0 -53 35 -90.5t94 -37.5q60 0 122 46l19 16l63 -121q-15 -15 -36 -30q-74 -54 -185 -55q-132 0 -210 79 q-77 80 -77 191z" />
			<glyph unicode="d" horiz-adv-x="637" d="M264 527q42 0 77.5 -10t46.5 -21l11 -10h2q-1 7 -1 23v206h173v-715h-162v34l1 29h-2q-12 -16 -22 -26q-49 -49 -127 -49q-104 0 -169 74q-63 75 -63 196t65 195q66 74 170 74zM304 131q45 0 73 33t28 94q0 52 -27.5 87.5t-73.5 35.5q-44 0 -72.5 -33.5t-28.5 -89.5 q0 -57 28 -92t73 -35z" />
			<glyph unicode="e" horiz-adv-x="563" d="M27 258q0 116 73 192q74 77 195 77q111 0 174 -70q64 -68 64 -179l-4 -54h-325q9 -44 41.5 -68t78.5 -24q31 0 66.5 12.5t56.5 26.5l19 13l64 -121l-27 -21q-17 -12 -75 -33q-57 -21 -118 -21q-130 0 -207 80q-76 79 -76 190zM208 323h151q0 31 -19.5 52.5t-48.5 21.5 q-65 0 -83 -74z" />
			<glyph unicode="f" horiz-adv-x="384" d="M269 0h-173v371h-63v135h63v21q0 92 58 141q28 21 59 32q56 19 119 19l52 -3v-146q-16 2 -28 2q-87 0 -87 -50v-16h95v-135h-95v-371z" />
			<glyph unicode="g" horiz-adv-x="629" d="M79 -164l49 131q64 -33 145 -33q119 0 119 99v17l1 19h-2q-45 -54 -129 -54q-110 0 -171 76t-61 183q0 106 60 179q60 74 171 74q39 0 74.5 -11.5t51.5 -25.5l14 -13h3q-1 4 -1 12v26h162v-468q0 -68 -25 -119t-67.5 -80.5t-92.5 -43.5t-106 -14q-107 0 -195 46zM303 159 q93 0 93 113q0 111 -100 111q-43 0 -67.5 -28t-24.5 -75q0 -54 26 -87.5t73 -33.5z" />
			<glyph unicode="h" d="M237 0h-173v715h173v-226l-2 -44h2q22 38 64 60t93 22q185 0 185 -193v-334h-173v302q0 68 -57 68q-78 0 -103 -76q-9 -26 -9 -66v-228z" />
			<glyph unicode="i" horiz-adv-x="301" d="M235 580h-169v135h169v-135zM237 0h-173v515h173v-515z" />
			<glyph unicode="j" horiz-adv-x="301" d="M235 580h-169v135h169v-135zM64 4v511h173v-528q0 -96 -62 -144q-27 -21 -61 -32q-56 -19 -119 -19l-46 3v144q6 -1 22 -1q93 0 93 66z" />
			<glyph unicode="k" horiz-adv-x="599" d="M237 0h-173v715h173v-370h49l102 170h188l-151 -234v-2l172 -279h-197l-109 200h-54v-200z" />
			<glyph unicode="l" horiz-adv-x="323" d="M57 190v525h173v-502q0 -39 9.5 -52.5t38.5 -13.5l21 1v-150q-24 -3 -52 -3q-78 0 -129 32q-61 39 -61 163z" />
			<glyph unicode="m" horiz-adv-x="918" d="M237 0h-173v515h166v-45l-2 -32h2q59 89 153 89q103 0 144 -87h2q23 37 68 62t97 25q79 0 123 -47.5t44 -145.5v-334h-173v305q0 65 -40 65q-76 0 -95 -97q-4 -16 -4 -60v-213h-173v305q0 65 -40 65q-74 0 -94 -93q-5 -27 -5 -64v-213z" />
			<glyph unicode="n" d="M237 0h-173v515h166v-45l-2 -32h2q53 89 164 89q185 0 185 -193v-334h-173v302q0 68 -57 68q-76 0 -102 -74q-10 -27 -10 -68v-228z" />
			<glyph unicode="o" d="M317 527q125 0 208 -76q85 -75 85 -195q0 -119 -84 -194q-85 -74 -208 -74t-208 74q-84 75 -84 194q0 118 84 195q83 76 207 76zM201 256q0 -55 33.5 -89.5t83.5 -34.5t83.5 34.5t33.5 89.5q0 56 -33.5 91.5t-83.5 35.5t-83.5 -35.5t-33.5 -91.5z" />
			<glyph unicode="p" horiz-adv-x="637" d="M237 -200h-173v715h156v-26l-2 -33h2q8 10 24 24q49 47 132 47q105 0 168 -75q64 -73 64 -195q0 -121 -68 -195t-172 -74q-34 0 -67.5 11.5t-49.5 24.5l-14 13h-2q2 -24 2 -44v-193zM232 254q0 -52 27.5 -87.5t73.5 -35.5q44 0 72.5 33.5t28.5 89.5q0 57 -28 92t-73 35 t-73 -33t-28 -94z" />
			<glyph unicode="q" horiz-adv-x="637" d="M264 527q93 0 142 -49l5 -6h2q-2 14 -2 28v15h162v-715h-173v202l2 44h-2q-3 -4 -15 -16q-9 -9 -46 -26q-35 -16 -78 -16q-104 0 -169 74q-63 75 -63 196t65 195q66 74 170 74zM304 131q45 0 73 33t28 94q0 52 -27.5 87.5t-73.5 35.5q-44 0 -72.5 -33.5t-28.5 -89.5 q0 -57 28 -92t73 -35z" />
			<glyph unicode="r" horiz-adv-x="430" d="M237 0h-173v515h166v-87l-2 -32h2q18 55 63.5 91.5t100.5 36.5l20 -2v-170q-14 3 -35 3q-105 0 -133 -90q-9 -29 -9 -70v-195z" />
			<glyph unicode="s" horiz-adv-x="471" d="M47 45l-23 19l74 116l17 -15q16 -10 46 -23q36 -14 68 -14q51 0 51 24q0 17 -85 48q-157 56 -156 170q0 70 60 114q61 43 152 43q63 0 108 -17t66 -36l7 -6l-59 -123l-16 12q-11 7 -42 18q-31 12 -64 12q-51 0 -51 -25q0 -13 85 -44q157 -52 156 -167q0 -70 -58 -116 q-58 -47 -153 -47q-58 0 -109 19q-54 21 -74 38z" />
			<glyph unicode="t" horiz-adv-x="415" d="M90 190v181h-66v135h71v148h168v-148h108v-135h-108v-158q0 -66 92 -66l23 1v-150q-20 -3 -47 -3q-90 0 -152 33q-89 55 -89 162z" />
			<glyph unicode="u" horiz-adv-x="631" d="M57 181v334h173v-302q0 -68 55 -68q52 0 80.5 39.5t28.5 102.5v228h173v-515h-166v45l2 32h-2q-21 -41 -65 -65t-96 -24q-183 0 -183 193z" />
			<glyph unicode="v" horiz-adv-x="562" d="M387 0h-211l-178 515h182l80 -274l19 -89h2q9 57 19 89l79 274h183z" />
			<glyph unicode="w" horiz-adv-x="840" d="M352 0h-195l-144 515h182l64 -304l6 -54h2q1 25 9 54l71 304h148l71 -304l8 -54h2q2 29 7 54l64 304h180l-144 -515h-193l-58 238l-10 55h-2q-3 -29 -10 -55z" />
			<glyph unicode="x" horiz-adv-x="558" d="M205 0h-190l162 255l-166 260h195l56 -115l16 -34h2l16 34l56 115h195l-165 -260l162 -255h-190l-62 116l-12 26h-2l-12 -26z" />
			<glyph unicode="y" horiz-adv-x="546" d="M16 -183l-15 9l55 127q28 -19 53 -19q62 0 83 52l10 24l-219 505h196l76 -237l19 -80h2q14 64 17 77l65 240h189l-211 -570q-29 -77 -86 -116t-129 -39q-60 0 -105 27z" />
			<glyph unicode="z" horiz-adv-x="543" d="M507 0h-473v86l189 237q21 25 39 43l6 4v2q-18 -2 -45 -2h-181v145h460v-87l-188 -237q-18 -23 -40 -42l-6 -5v-2q13 3 46 3h193v-145z" />
			<glyph unicode="{" horiz-adv-x="405" d="M124 62v98q0 49 -25 71.5t-51 24.5h-9v150q3 0 9 0.5t20.5 5.5t26 14.5t20.5 30t9 48.5v88q0 49 20 84.5t54 50.5q58 27 125 27l43 -2v-124q-14 2 -25 2q-73 0 -73 -54v-117q0 -53 -25 -84t-51 -40l-8 -3v-2l9 -3t20.5 -11.5t25.5 -22t20 -36.5t9 -53v-127q0 -54 73 -54 l25 2v-124q-24 -2 -43 -2q-67 0 -125 27q-34 15 -54 50.5t-20 84.5z" />
			<glyph unicode="|" horiz-adv-x="310" d="M227 -165h-144v967h144v-967z" />
			<glyph unicode="}" horiz-adv-x="405" d="M39 -98v124q14 -2 25 -2q73 0 73 54v127q0 38 15.5 66.5t30 39.5t29.5 17l9 3v2q-9 2 -30 15q-54 38 -54 112v117q0 54 -73 54l-25 -2v124q24 2 43 2q67 0 124 -27q35 -15 55 -50.5t20 -84.5v-88q0 -41 20 -67t44 -29l21 -3v-150q-3 0 -9 -0.5t-20.5 -6t-26 -14.5 t-20.5 -28.5t-9 -46.5v-98q0 -49 -20 -84.5t-55 -50.5q-57 -27 -124 -27z" />
			<glyph unicode="~" horiz-adv-x="625" d="M181 191h-134q0 203 174 203q61 0 101 -40q42 -40 71 -40q25 0 40 20t15 56h133q0 -203 -173 -203q-60 0 -102 40q-40 40 -71 40q-25 0 -39.5 -20t-14.5 -56z" />
			<glyph unicode="&#xa1;" horiz-adv-x="320" d="M239 364h-158v150h158v-150zM250 -200h-180l16 493h148z" />
			<glyph unicode="&#xa2;" horiz-adv-x="588" d="M360 -12h-110v87q-90 21 -152 99q-61 79 -61 184q0 104 61 183t152 100v85h110v-85q69 -15 120 -60.5t73 -111.5l-154 -60q-12 34 -35.5 54.5t-54.5 20.5q-37 0 -68 -36q-30 -36 -30 -90q0 -58 27.5 -92t70.5 -34q31 0 55.5 21t34.5 54l154 -60q-21 -60 -72 -111 q-49 -50 -121 -61v-87z" />
			<glyph unicode="&#xa3;" horiz-adv-x="608" d="M102 299h-43v112h43v100q0 95 69 155q68 61 175 61q52 0 101 -21q49 -19 72 -41l23 -21l-97 -118q-47 44 -94 44q-30 0 -50 -17.5t-20 -46.5v-95h165v-112h-165v-149h290v-150h-524v150h55v149z" />
			<glyph unicode="&#xa5;" horiz-adv-x="644" d="M208 340h-139v96h92l-137 279h201l53 -143l43 -133h2q21 72 43 133l53 143h201l-138 -279h93v-96h-140l-24 -49v-28h164v-96h-164v-167h-179v167h-163v96h163v28z" />
			<glyph unicode="&#xa7;" horiz-adv-x="525" d="M270 179h-131l-76 273q-10 36 -10 75q0 91 60.5 145.5t170.5 54.5q57 0 111 -20q53 -20 74 -38l22 -19l-74 -108l-17 13q-9 7 -46 21q-33 13 -68 13q-98 0 -98 -83q0 -31 10 -67zM38 7l-8 8l69 115l19 -15q9 -7 47 -25q36 -15 71 -15q98 0 98 94q0 34 -13 77l-68 240h131 l74 -273q10 -36 10 -75q0 -91 -60.5 -145.5t-170.5 -54.5q-69 0 -120 22.5t-79 46.5z" />
			<glyph unicode="&#xa8;" horiz-adv-x="485" d="M410 771h-126v140h126v-140zM201 771h-126v140h126v-140z" />
			<glyph unicode="&#xa9;" horiz-adv-x="800" d="M398 726q150 0 257 -108q106 -106 106 -260q0 -153 -106 -262q-107 -108 -257 -108q-148 0 -254 108q-105 110 -105 262q0 154 105 260q105 108 254 108zM152 358q0 -111 71 -190q71 -77 175 -77q106 0 178 77q73 77 73 190q0 112 -73 188q-72 77 -178 77 q-104 0 -175 -77t-71 -188zM400 542q47 0 83.5 -21t51 -40.5t23.5 -41.5l4 -12l-100 -39q-2 7 -6 13q-4 11 -19 23.5t-33 12.5q-24 0 -41.5 -23.5t-17.5 -58.5q0 -38 16 -60t43 -22q19 0 33.5 11.5t20.5 25.5l4 12l100 -39q-2 -11 -20 -40q-40 -72 -142 -75q-70 0 -121 54 q-51 56 -51 133q0 78 51 132q51 55 121 55z" />
			<glyph unicode="&#xaa;" horiz-adv-x="413" d="M156 383q-42 0 -73 28q-32 29 -32 74q0 109 181 109h5v8q0 36 -47 36q-30 0 -68 -20l-12 -7l-38 75l16 10q15 9 51 19t71 10q69 0 107 -36t38 -99v-200h-108v39h-2l-9 -13q-7 -10 -30.5 -21.5t-49.5 -11.5zM191 472q18 0 31.5 14t13.5 31v5h-10q-58 0 -58 -30 q0 -20 23 -20zM359 268h-305v85h305v-85z" />
			<glyph unicode="&#xab;" horiz-adv-x="643" d="M452 77l-164 205l164 206h158l-164 -206l164 -205h-158zM350 77h-158l-164 205l164 206h158l-164 -206z" />
			<glyph unicode="&#xac;" horiz-adv-x="602" d="M407 337h-371v130h506v-335h-135v205z" />
			<glyph unicode="&#xad;" horiz-adv-x="448" d="M381 212h-314v150h314v-150z" />
			<glyph unicode="&#xae;" horiz-adv-x="800" d="M398 726q150 0 257 -108q106 -106 106 -260q0 -153 -106 -262q-107 -108 -257 -108q-148 0 -254 108q-105 110 -105 262q0 154 105 260q105 108 254 108zM152 358q0 -111 71 -190q71 -77 175 -77q106 0 178 77q73 77 73 190q0 112 -73 188q-72 77 -178 77 q-104 0 -175 -77t-71 -188zM376 187h-108v347h163q56 0 89 -31t33 -84q0 -34 -18.5 -58.5t-39.5 -30.5v-2q3 -2 13 -20l63 -121h-118l-49 118h-28v-118zM376 460v-83h27q40 0 40 42q0 41 -38 41h-29z" />
			<glyph unicode="&#xaf;" horiz-adv-x="485" d="M380 782h-275v112h275v-112z" />
			<glyph unicode="&#xb0;" horiz-adv-x="418" d="M209 385q-76 0 -129 50q-52 49 -52 122q0 71 53 122t128 51t128 -51t53 -122q0 -72 -53 -122t-128 -50zM264 558q0 21 -16.5 36.5t-38.5 15.5t-38.5 -15.5t-16.5 -36.5q0 -22 16 -37.5t39 -15.5t39 15.5t16 37.5z" />
			<glyph unicode="&#xb1;" horiz-adv-x="626" d="M245 222h-205v130h205v223h136v-223h205v-130h-205v-222h-136v222zM50 -200v130h526v-130h-526z" />
			<glyph unicode="&#xb4;" horiz-adv-x="484" d="M250 761h-134l81 150h171z" />
			<glyph unicode="&#xb5;" horiz-adv-x="650" d="M217 -200h-147v715h173v-302q0 -68 55 -68q52 0 80.5 39.5t28.5 102.5v228h173v-515h-166v50l2 27h-3q-11 -18 -23 -31q-51 -58 -137 -58l-42 4h-2q8 -51 8 -88v-104z" />
			<glyph unicode="&#xb6;" horiz-adv-x="654" d="M382 -50h-120v291q-98 0 -165 69q-68 70 -68 169q0 100 68 168t165 68h357v-150h-237v-615zM564 -50h-120v565h120v-565z" />
			<glyph unicode="&#xb7;" horiz-adv-x="292" d="M225 213h-158v164h158v-164z" />
			<glyph unicode="&#xb8;" horiz-adv-x="484" d="M164 -82l35 111l72 -17v-7l-10 -41q75 -8 75 -80q0 -48 -32.5 -71t-84.5 -23q-37 0 -61 6l-10 3v87q21 -10 45 -10q38 0 38 23q0 21 -41 21z" />
			<glyph unicode="&#xba;" horiz-adv-x="455" d="M226 725q78 0 131 -48q53 -47 53 -122t-53 -123q-53 -47 -130 -47t-130 47q-52 48 -52 123q0 76 52 122q53 48 129 48zM290 555q0 30 -18 49t-45 19t-45 -19t-18 -49q-3 -41 30 -58.5t66 0t30 58.5zM396 268h-338v85h338v-85z" />
			<glyph unicode="&#xbb;" horiz-adv-x="643" d="M451 77h-158l164 205l-164 206h158l164 -206zM191 77h-158l164 205l-164 206h158l164 -206z" />
			<glyph unicode="&#xbf;" horiz-adv-x="468" d="M346 365h-158v150h158v-150zM13 -14q0 87 60 143q10 9 37 32t38.5 34.5t23.5 30.5t12 37v31h166v-45q0 -71 -55 -121q-8 -7 -27 -22.5t-29 -24.5t-22.5 -22t-18 -26t-5.5 -27q0 -25 21 -42t50 -17q20 0 44 10t38 22l13 11l96 -117q-15 -15 -35 -29q-79 -54 -174 -54 q-92 0 -163 53q-70 52 -70 143z" />
			<glyph unicode="&#xc0;" horiz-adv-x="662" d="M666 0h-180l-44 150h-223l-43 -150h-180l243 715h184zM361 429l-29 123h-2q-19 -89 -29 -123l-41 -139h141zM403 761h-134l-118 150h171z" />
			<glyph unicode="&#xc1;" horiz-adv-x="662" d="M666 0h-180l-44 150h-223l-43 -150h-180l243 715h184zM361 429l-29 123h-2q-19 -89 -29 -123l-41 -139h141zM393 761h-134l81 150h171z" />
			<glyph unicode="&#xc2;" horiz-adv-x="662" d="M666 0h-180l-44 150h-223l-43 -150h-180l243 715h184zM361 429l-29 123h-2q-19 -89 -29 -123l-41 -139h141zM283 761h-135l99 150h168l99 -150h-135l-47 82h-2z" />
			<glyph unicode="&#xc3;" horiz-adv-x="662" d="M666 0h-180l-44 150h-223l-43 -150h-180l243 715h184zM361 429l-29 123h-2q-19 -89 -29 -123l-41 -139h141zM242 761h-112q0 153 128 153q32 0 73 -30t53 -30q37 0 37 57h112q0 -153 -128 -153q-25 0 -50 15t-44.5 30t-31.5 15q-37 0 -37 -57z" />
			<glyph unicode="&#xc4;" horiz-adv-x="662" d="M666 0h-180l-44 150h-223l-43 -150h-180l243 715h184zM361 429l-29 123h-2q-19 -89 -29 -123l-41 -139h141zM499 771h-126v140h126v-140zM290 771h-126v140h126v-140z" />
			<glyph unicode="&#xc5;" horiz-adv-x="662" d="M666 0h-180l-44 150h-223l-43 -150h-180l243 715h184zM361 429l-29 123h-2q-19 -89 -29 -123l-41 -139h141zM408 769q-33 -22 -77 -22t-77 22q-32 23 -32 63t32 63q33 23 77 23t77 -23t33 -63t-33 -63zM331 868q-21 2 -30 -17t-0.5 -37.5t30.5 -16.5q22 -2 31 16.5 t0 37.5t-31 17z" />
			<glyph unicode="&#xc6;" horiz-adv-x="955" d="M172 0h-182l299 715h610v-150h-273v-130h218v-150h-218v-135h286v-150h-461v288h-168zM451 565h-61l-53 -137h114v137z" />
			<glyph unicode="&#xc7;" horiz-adv-x="722" d="M37 359q0 157 107 262q106 106 268 106q99 0 171 -36q64 -32 87 -55l10 -10l-81 -132q-17 14 -25 20q-18 13 -63 32q-47 21 -91 21q-98 0 -150 -60q-52 -59 -52 -144q0 -87 54 -151t148 -64q50 0 95 22q51 24 71 44l24 22l90 -128q-22 -22 -44 -39q-23 -18 -53 -35 q-72 -39 -166 -45l-6 -25q75 -8 75 -80q0 -48 -32.5 -71t-84.5 -23q-37 0 -61 6l-10 3v87q21 -10 45 -10q38 0 38 23q0 21 -41 21l-26 -2l23 73q-144 18 -233 120q-87 102 -87 248z" />
			<glyph unicode="&#xc8;" horiz-adv-x="588" d="M546 0h-462v715h448v-150h-273v-130h218v-150h-218v-135h287v-150zM388 761h-134l-118 150h171z" />
			<glyph unicode="&#xc9;" horiz-adv-x="588" d="M546 0h-462v715h448v-150h-273v-130h218v-150h-218v-135h287v-150zM378 761h-134l81 150h171z" />
			<glyph unicode="&#xca;" horiz-adv-x="588" d="M546 0h-462v715h448v-150h-273v-130h218v-150h-218v-135h287v-150zM268 761h-135l99 150h168l99 -150h-135l-47 82h-2z" />
			<glyph unicode="&#xcb;" horiz-adv-x="588" d="M546 0h-462v715h448v-150h-273v-130h218v-150h-218v-135h287v-150zM484 771h-126v140h126v-140zM275 771h-126v140h126v-140z" />
			<glyph unicode="&#xcc;" horiz-adv-x="343" d="M259 0h-175v715h175v-715zM244 761h-134l-118 150h171z" />
			<glyph unicode="&#xcd;" horiz-adv-x="343" d="M259 0h-175v715h175v-715zM234 761h-134l81 150h171z" />
			<glyph unicode="&#xce;" horiz-adv-x="343" d="M124 761h-135l99 150h168l99 -150h-135l-47 82h-2zM259 0h-175v715h175v-715z" />
			<glyph unicode="&#xcf;" horiz-adv-x="343" d="M340 771h-126v140h126v-140zM131 771h-126v140h126v-140zM259 0h-175v715h175v-715z" />
			<glyph unicode="&#xd0;" horiz-adv-x="767" d="M105 284h-57v140h57v291h254q169 0 269 -95q100 -94 100 -261q0 -168 -100 -264q-100 -95 -269 -95h-254v284zM280 284v-134h72q93 0 144 54t51 155q0 99 -51.5 152.5t-143.5 53.5h-72v-141h104v-140h-104z" />
			<glyph unicode="&#xd1;" horiz-adv-x="772" d="M259 0h-175v715h177l198 -334q25 -45 51 -102l9 -20h2q-8 82 -8 122v334h175v-715h-176l-199 333q-25 45 -51 102l-9 20h-2q8 -82 8 -122v-333zM297 761h-112q0 153 128 153q25 0 50 -15t44.5 -30t31.5 -15q37 0 37 57h112q0 -153 -128 -153q-25 0 -50 15t-44.5 30 t-31.5 15q-37 0 -37 -57z" />
			<glyph unicode="&#xd2;" horiz-adv-x="818" d="M35 362q0 155 106 260q107 105 268 105t267 -105q107 -105 107 -260q0 -158 -107 -267q-107 -107 -267 -107q-161 0 -268 107q-106 107 -106 267zM216 362q0 -91 56 -153q55 -61 137 -61t137 61q56 62 56 153q0 87 -56 146t-137 59t-137 -59t-56 -146zM481 761h-134 l-118 150h171z" />
			<glyph unicode="&#xd3;" horiz-adv-x="818" d="M35 362q0 155 106 260q107 105 268 105t267 -105q107 -105 107 -260q0 -158 -107 -267q-107 -107 -267 -107q-161 0 -268 107q-106 107 -106 267zM216 362q0 -91 56 -153q55 -61 137 -61t137 61q56 62 56 153q0 87 -56 146t-137 59t-137 -59t-56 -146zM471 761h-134 l81 150h171z" />
			<glyph unicode="&#xd4;" horiz-adv-x="818" d="M35 362q0 155 106 260q107 105 268 105t267 -105q107 -105 107 -260q0 -158 -107 -267q-107 -107 -267 -107q-161 0 -268 107q-106 107 -106 267zM216 362q0 -91 56 -153q55 -61 137 -61t137 61q56 62 56 153q0 87 -56 146t-137 59t-137 -59t-56 -146zM361 761h-135 l99 150h168l99 -150h-135l-47 82h-2z" />
			<glyph unicode="&#xd5;" horiz-adv-x="818" d="M35 362q0 155 106 260q107 105 268 105t267 -105q107 -105 107 -260q0 -158 -107 -267q-107 -107 -267 -107q-161 0 -268 107q-106 107 -106 267zM216 362q0 -91 56 -153q55 -61 137 -61t137 61q56 62 56 153q0 87 -56 146t-137 59t-137 -59t-56 -146zM320 761h-112 q0 153 128 153q32 0 73 -30t53 -30q37 0 37 57h112q0 -153 -128 -153q-25 0 -50 15t-44.5 30t-31.5 15q-37 0 -37 -57z" />
			<glyph unicode="&#xd6;" horiz-adv-x="818" d="M35 362q0 155 106 260q107 105 268 105t267 -105q107 -105 107 -260q0 -158 -107 -267q-107 -107 -267 -107q-161 0 -268 107q-106 107 -106 267zM216 362q0 -91 56 -153q55 -61 137 -61t137 61q56 62 56 153q0 87 -56 146t-137 59t-137 -59t-56 -146zM577 771h-126v140 h126v-140zM368 771h-126v140h126v-140z" />
			<glyph unicode="&#xd8;" horiz-adv-x="820" d="M36 362q0 155 106 260t268 105q99 0 176 -40l41 56l70 -47l-40 -55q127 -108 127 -279q0 -158 -107 -267q-107 -107 -267 -107q-104 0 -190 48l-46 -64l-70 48l48 66q-116 108 -116 276zM603 362q0 82 -48 137l-237 -327q44 -24 92 -24q82 0 137 61q56 62 56 153z M217 362q0 -76 39 -132l232 320q-39 17 -78 17q-81 0 -137 -59t-56 -146z" />
			<glyph unicode="&#xd9;" horiz-adv-x="746" d="M74 263v452h175v-452q0 -54 33.5 -84.5t90.5 -30.5t90.5 30.5t33.5 84.5v452h175v-452q0 -123 -82 -199t-216 -76q-136 0 -218 76t-82 199zM445 761h-134l-118 150h171z" />
			<glyph unicode="&#xda;" horiz-adv-x="746" d="M74 263v452h175v-452q0 -54 33.5 -84.5t90.5 -30.5t90.5 30.5t33.5 84.5v452h175v-452q0 -123 -82 -199t-216 -76q-136 0 -218 76t-82 199zM435 761h-134l81 150h171z" />
			<glyph unicode="&#xdb;" horiz-adv-x="746" d="M74 263v452h175v-452q0 -54 33.5 -84.5t90.5 -30.5t90.5 30.5t33.5 84.5v452h175v-452q0 -123 -82 -199t-216 -76q-136 0 -218 76t-82 199zM325 761h-135l99 150h168l99 -150h-135l-47 82h-2z" />
			<glyph unicode="&#xdc;" horiz-adv-x="746" d="M74 263v452h175v-452q0 -54 33.5 -84.5t90.5 -30.5t90.5 30.5t33.5 84.5v452h175v-452q0 -123 -82 -199t-216 -76q-136 0 -218 76t-82 199zM541 771h-126v140h126v-140zM332 771h-126v140h126v-140z" />
			<glyph unicode="&#xdd;" horiz-adv-x="639" d="M407 0h-175v293l-236 422h199l81 -172l43 -103h2q15 41 43 103l80 172h199l-236 -422v-293zM382 761h-134l81 150h171z" />
			<glyph unicode="&#xde;" horiz-adv-x="635" d="M259 0h-175v715h175v-106h122q103 0 168 -69q65 -70 65 -177q0 -108 -65 -179q-65 -69 -168 -69h-122v-115zM259 459v-194h86q43 0 67 26.5t24 71.5t-23 70.5t-65 25.5h-89z" />
			<glyph unicode="&#xdf;" horiz-adv-x="638" d="M237 0h-173v527q0 95 75 147q76 53 180 53q95 0 162 -55q69 -54 69 -138q0 -38 -36 -89.5t-36 -70.5q0 -23 67 -74q27 -20 47 -56t20 -76q0 -83 -56 -130q-56 -45 -138 -45q-80 0 -112 15l-12 6v142q45 -19 95 -19t50 42q0 24 -68 71q-28 20 -47.5 52t-19.5 68 q0 34 36 88t36 72q0 24 -16.5 38.5t-45.5 14.5q-77 0 -77 -68v-515z" />
			<glyph unicode="&#xe0;" horiz-adv-x="560" d="M25 154q0 51 33 88t88 52q93 27 178 27h7v9q0 57 -76 57q-54 0 -119 -37l-20 -12l-60 122q20 15 28 19q22 12 75 29q56 19 113 19q109 0 170.5 -56t61.5 -154v-317h-158v31l2 32h-2q-15 -20 -21 -26q-47 -49 -125 -49q-74 0 -125 45q-50 47 -50 121zM199 163 q0 -19 13 -31t36 -12q33 0 59 29t26 62v11h-16q-50 0 -84 -15t-34 -44zM352 565h-134l-118 150h171z" />
			<glyph unicode="&#xe1;" horiz-adv-x="560" d="M25 154q0 51 33 88t88 52q93 27 178 27h7v9q0 57 -76 57q-54 0 -119 -37l-20 -12l-60 122q20 15 28 19q22 12 75 29q56 19 113 19q109 0 170.5 -56t61.5 -154v-317h-158v31l2 32h-2q-15 -20 -21 -26q-47 -49 -125 -49q-74 0 -125 45q-50 47 -50 121zM199 163 q0 -19 13 -31t36 -12q33 0 59 29t26 62v11h-16q-50 0 -84 -15t-34 -44zM341 565h-134l81 150h171z" />
			<glyph unicode="&#xe2;" horiz-adv-x="560" d="M25 154q0 51 33 88t88 52q93 27 178 27h7v9q0 57 -76 57q-54 0 -119 -37l-20 -12l-60 122q20 15 28 19q22 12 75 29q56 19 113 19q109 0 170.5 -56t61.5 -154v-317h-158v31l2 32h-2q-15 -20 -21 -26q-47 -49 -125 -49q-74 0 -125 45q-50 47 -50 121zM199 163 q0 -19 13 -31t36 -12q33 0 59 29t26 62v11h-16q-50 0 -84 -15t-34 -44zM231 565h-135l99 150h168l99 -150h-135l-47 82h-2z" />
			<glyph unicode="&#xe3;" horiz-adv-x="560" d="M25 154q0 51 33 88t88 52q93 27 178 27h7v9q0 57 -76 57q-54 0 -119 -37l-20 -12l-60 122q20 15 28 19q22 12 75 29q56 19 113 19q109 0 170.5 -56t61.5 -154v-317h-158v31l2 32h-2q-15 -20 -21 -26q-47 -49 -125 -49q-74 0 -125 45q-50 47 -50 121zM199 163 q0 -19 13 -31t36 -12q33 0 59 29t26 62v11h-16q-50 0 -84 -15t-34 -44zM190 565h-112q0 153 128 153q32 0 73 -30t53 -30q37 0 37 57h112q0 -153 -128 -153q-25 0 -50 15t-44.5 30t-31.5 15q-37 0 -37 -57z" />
			<glyph unicode="&#xe4;" horiz-adv-x="560" d="M25 154q0 51 33 88t88 52q93 27 178 27h7v9q0 57 -76 57q-54 0 -119 -37l-20 -12l-60 122q20 15 28 19q22 12 75 29q56 19 113 19q109 0 170.5 -56t61.5 -154v-317h-158v31l2 32h-2q-15 -20 -21 -26q-47 -49 -125 -49q-74 0 -125 45q-50 47 -50 121zM199 163 q0 -19 13 -31t36 -12q33 0 59 29t26 62v11h-16q-50 0 -84 -15t-34 -44zM447 575h-126v140h126v-140zM238 575h-126v140h126v-140z" />
			<glyph unicode="&#xe5;" horiz-adv-x="560" d="M25 154q0 51 33 88t88 52q93 27 178 27h7v9q0 57 -76 57q-54 0 -119 -37l-20 -12l-60 122q20 15 28 19q22 12 75 29q56 19 113 19q109 0 170.5 -56t61.5 -154v-317h-158v31l2 32h-2q-15 -20 -21 -26q-47 -49 -125 -49q-74 0 -125 45q-50 47 -50 121zM199 163 q0 -19 13 -31t36 -12q33 0 59 29t26 62v11h-16q-50 0 -84 -15t-34 -44zM356 573q-33 -22 -77 -22t-77 22q-32 23 -32 63t32 63q33 23 77 23t77 -23t33 -63t-33 -63zM279 672q-21 2 -30 -17t-0.5 -37.5t30.5 -16.5q22 -2 31 16.5t0 37.5t-31 17z" />
			<glyph unicode="&#xe6;" horiz-adv-x="855" d="M26 154q0 42 22.5 74.5t58.5 51.5q35 17 79 27q65 16 142 16h4v7q0 57 -76 57q-55 0 -120 -37l-20 -12l-60 121q23 17 27 19q17 10 74 30q54 19 112 19q106 0 163 -51h2q62 51 154 51q108 0 173 -72q65 -71 65 -182l-4 -49h-325q9 -44 41.5 -68t78.5 -24q30 0 65.5 12 t57.5 26l19 13l64 -120l-27 -21q-16 -12 -75 -33q-57 -21 -118 -21q-133 0 -207 90h-2q-17 -30 -65 -59q-49 -30 -128 -30q-74 0 -125 45q-50 47 -50 120zM501 323h151q0 30 -18.5 52t-45.5 22q-67 0 -87 -74zM200 163q0 -43 51 -43q33 0 59 29q25 29 25 63v12h-17 q-47 0 -82 -16q-36 -16 -36 -45z" />
			<glyph unicode="&#xe7;" horiz-adv-x="553" d="M28 258q0 109 77 189q78 80 210 80q72 0 124.5 -23.5t72.5 -46.5l8 -8l-73 -116q-9 9 -16 14q-14 10 -42 22q-33 14 -63 14q-56 0 -89.5 -35.5t-33.5 -87.5q0 -53 35 -90.5t94 -37.5q60 0 122 46l19 16l63 -121q-8 -8 -33 -27q-65 -49 -166 -57l-6 -25q75 -8 75 -80 q0 -48 -32.5 -71t-84.5 -23q-37 0 -61 6l-10 3v87q21 -10 45 -10q38 0 38 23q0 21 -41 21l-26 -2l23 75q-106 16 -168 91q-61 74 -61 174z" />
			<glyph unicode="&#xe8;" horiz-adv-x="563" d="M27 258q0 116 73 192q74 77 195 77q111 0 174 -70q64 -68 64 -179l-4 -54h-325q9 -44 41.5 -68t78.5 -24q31 0 66.5 12.5t56.5 26.5l19 13l64 -121l-27 -21q-17 -12 -75 -33q-57 -21 -118 -21q-130 0 -207 80q-76 79 -76 190zM208 323h151q0 31 -19.5 52.5t-48.5 21.5 q-65 0 -83 -74zM364 565h-134l-118 150h171z" />
			<glyph unicode="&#xe9;" horiz-adv-x="563" d="M27 258q0 116 73 192q74 77 195 77q111 0 174 -70q64 -68 64 -179l-4 -54h-325q9 -44 41.5 -68t78.5 -24q31 0 66.5 12.5t56.5 26.5l19 13l64 -121l-27 -21q-17 -12 -75 -33q-57 -21 -118 -21q-130 0 -207 80q-76 79 -76 190zM208 323h151q0 31 -19.5 52.5t-48.5 21.5 q-65 0 -83 -74zM353 565h-134l81 150h171z" />
			<glyph unicode="&#xea;" horiz-adv-x="563" d="M27 258q0 116 73 192q74 77 195 77q111 0 174 -70q64 -68 64 -179l-4 -54h-325q9 -44 41.5 -68t78.5 -24q31 0 66.5 12.5t56.5 26.5l19 13l64 -121l-27 -21q-17 -12 -75 -33q-57 -21 -118 -21q-130 0 -207 80q-76 79 -76 190zM208 323h151q0 31 -19.5 52.5t-48.5 21.5 q-65 0 -83 -74zM243 565h-135l99 150h168l99 -150h-135l-47 82h-2z" />
			<glyph unicode="&#xeb;" horiz-adv-x="563" d="M27 258q0 116 73 192q74 77 195 77q111 0 174 -70q64 -68 64 -179l-4 -54h-325q9 -44 41.5 -68t78.5 -24q31 0 66.5 12.5t56.5 26.5l19 13l64 -121l-27 -21q-17 -12 -75 -33q-57 -21 -118 -21q-130 0 -207 80q-76 79 -76 190zM208 323h151q0 31 -19.5 52.5t-48.5 21.5 q-65 0 -83 -74zM459 575h-126v140h126v-140zM250 575h-126v140h126v-140z" />
			<glyph unicode="&#xec;" horiz-adv-x="301" d="M237 0h-173v515h173v-515zM222 565h-134l-118 150h171z" />
			<glyph unicode="&#xed;" horiz-adv-x="301" d="M237 0h-173v515h173v-515zM212 565h-134l81 150h171z" />
			<glyph unicode="&#xee;" horiz-adv-x="301" d="M102 565h-135l99 150h168l99 -150h-135l-47 82h-2zM237 0h-173v515h173v-515z" />
			<glyph unicode="&#xef;" horiz-adv-x="301" d="M318 575h-126v140h126v-140zM109 575h-126v140h126v-140zM237 0h-173v515h173v-515z" />
			<glyph unicode="&#xf0;" horiz-adv-x="596" d="M30 241q0 91 63 157q65 66 168 66q37 0 61 -6l8 -3h2q-26 38 -70 63l-192 -79v95l92 39q-53 23 -95 30l48 135q134 -29 232 -89l161 67v-95l-81 -34q127 -121 127 -304q0 -55 -14.5 -104.5t-44.5 -93.5t-84.5 -70.5t-126.5 -26.5q-116 0 -185 75t-69 178zM204 236 q0 -47 21 -75.5t62 -28.5q46 0 69.5 33t23.5 85q0 37 -22 59.5t-61 22.5q-44 0 -68.5 -26.5t-24.5 -69.5z" />
			<glyph unicode="&#xf1;" d="M237 0h-173v515h166v-45l-2 -32h2q53 89 164 89q185 0 185 -193v-334h-173v302q0 68 -57 68q-76 0 -102 -74q-10 -27 -10 -68v-228zM236 565h-112q0 153 128 153q32 0 73 -30t53 -30q37 0 37 57h112q0 -153 -128 -153q-25 0 -50 15t-44.5 30t-31.5 15q-37 0 -37 -57z" />
			<glyph unicode="&#xf2;" d="M317 527q125 0 208 -76q85 -75 85 -195q0 -119 -84 -194q-85 -74 -208 -74t-208 74q-84 75 -84 194q0 118 84 195q83 76 207 76zM201 256q0 -55 33.5 -89.5t83.5 -34.5t83.5 34.5t33.5 89.5q0 56 -33.5 91.5t-83.5 35.5t-83.5 -35.5t-33.5 -91.5zM390 565h-134l-118 150 h171z" />
			<glyph unicode="&#xf3;" d="M317 527q125 0 208 -76q85 -75 85 -195q0 -119 -84 -194q-85 -74 -208 -74t-208 74q-84 75 -84 194q0 118 84 195q83 76 207 76zM201 256q0 -55 33.5 -89.5t83.5 -34.5t83.5 34.5t33.5 89.5q0 56 -33.5 91.5t-83.5 35.5t-83.5 -35.5t-33.5 -91.5zM380 565h-134l81 150 h171z" />
			<glyph unicode="&#xf4;" d="M317 527q125 0 208 -76q85 -75 85 -195q0 -119 -84 -194q-85 -74 -208 -74t-208 74q-84 75 -84 194q0 118 84 195q83 76 207 76zM201 256q0 -55 33.5 -89.5t83.5 -34.5t83.5 34.5t33.5 89.5q0 56 -33.5 91.5t-83.5 35.5t-83.5 -35.5t-33.5 -91.5zM270 565h-135l99 150 h168l99 -150h-135l-47 82h-2z" />
			<glyph unicode="&#xf5;" d="M317 527q125 0 208 -76q85 -75 85 -195q0 -119 -84 -194q-85 -74 -208 -74t-208 74q-84 75 -84 194q0 118 84 195q83 76 207 76zM201 256q0 -55 33.5 -89.5t83.5 -34.5t83.5 34.5t33.5 89.5q0 56 -33.5 91.5t-83.5 35.5t-83.5 -35.5t-33.5 -91.5zM229 565h-112 q0 153 128 153q33 0 73.5 -30t52.5 -30q37 0 37 57h112q0 -153 -128 -153q-25 0 -50 15t-44.5 30t-31.5 15q-37 0 -37 -57z" />
			<glyph unicode="&#xf6;" d="M317 527q125 0 208 -76q85 -75 85 -195q0 -119 -84 -194q-85 -74 -208 -74t-208 74q-84 75 -84 194q0 118 84 195q83 76 207 76zM201 256q0 -55 33.5 -89.5t83.5 -34.5t83.5 34.5t33.5 89.5q0 56 -33.5 91.5t-83.5 35.5t-83.5 -35.5t-33.5 -91.5zM486 575h-126v140h126 v-140zM277 575h-126v140h126v-140z" />
			<glyph unicode="&#xf7;" horiz-adv-x="712" d="M429 440h-146v135h146v-135zM629 222h-546v130h546v-130zM429 0h-146v135h146v-135z" />
			<glyph unicode="&#xf8;" horiz-adv-x="635" d="M25 256q0 118 84 195q83 76 207 76q68 0 131 -26l42 58l66 -45l-40 -55q94 -78 94 -203q0 -119 -84 -194q-85 -74 -208 -74q-66 0 -124 23l-44 -61l-66 46l39 55q-97 76 -97 205zM200 256q0 -42 19 -71l138 191q-21 7 -40 7q-50 0 -83.5 -35.5t-33.5 -91.5zM434 256 q0 38 -16 67l-135 -187q13 -4 34 -4q50 0 83.5 34.5t33.5 89.5z" />
			<glyph unicode="&#xf9;" horiz-adv-x="631" d="M57 181v334h173v-302q0 -68 55 -68q52 0 80.5 39.5t28.5 102.5v228h173v-515h-166v45l2 32h-2q-21 -41 -65 -65t-96 -24q-183 0 -183 193zM384 565h-134l-118 150h171z" />
			<glyph unicode="&#xfa;" horiz-adv-x="631" d="M57 181v334h173v-302q0 -68 55 -68q52 0 80.5 39.5t28.5 102.5v228h173v-515h-166v45l2 32h-2q-21 -41 -65 -65t-96 -24q-183 0 -183 193zM374 565h-134l81 150h171z" />
			<glyph unicode="&#xfb;" horiz-adv-x="631" d="M57 181v334h173v-302q0 -68 55 -68q52 0 80.5 39.5t28.5 102.5v228h173v-515h-166v45l2 32h-2q-21 -41 -65 -65t-96 -24q-183 0 -183 193zM264 565h-135l99 150h168l99 -150h-135l-47 82h-2z" />
			<glyph unicode="&#xfc;" horiz-adv-x="631" d="M57 181v334h173v-302q0 -68 55 -68q52 0 80.5 39.5t28.5 102.5v228h173v-515h-166v45l2 32h-2q-21 -41 -65 -65t-96 -24q-183 0 -183 193zM480 575h-126v140h126v-140zM271 575h-126v140h126v-140z" />
			<glyph unicode="&#xfd;" horiz-adv-x="546" d="M16 -183l-15 9l55 127q28 -19 53 -19q62 0 83 52l10 24l-219 505h196l76 -237l19 -80h2q14 64 17 77l65 240h189l-211 -570q-29 -77 -86 -116t-129 -39q-60 0 -105 27zM337 564h-134l81 150h171z" />
			<glyph unicode="&#xfe;" horiz-adv-x="635" d="M237 -200h-173v915h173v-197l-2 -44h2q48 53 134 53q105 0 170 -77q66 -76 66 -192t-66 -193q-65 -77 -170 -77q-40 0 -74.5 11.5t-47.5 24.5l-12 12h-2q2 -24 2 -44v-192zM232 257q0 -125 104 -125q43 0 70 36t27 90t-26.5 89.5t-70.5 35.5q-104 0 -104 -126z" />
			<glyph unicode="&#xff;" horiz-adv-x="546" d="M16 -183l-15 9l55 127q28 -19 53 -19q62 0 83 52l10 24l-219 505h196l76 -237l19 -80h2q14 64 17 77l65 240h189l-211 -570q-29 -77 -86 -116t-129 -39q-60 0 -105 27zM443 574h-126v140h126v-140zM234 574h-126v140h126v-140z" />
			<glyph unicode="&#x10a;" horiz-adv-x="720" d="M35 359q0 157 107 262q106 106 268 106q99 0 171 -36q64 -32 87 -55l10 -10l-81 -132q-17 14 -25 20q-18 13 -63 32q-47 21 -91 21q-98 0 -150 -60q-52 -59 -52 -144q0 -87 54 -151t148 -64q50 0 95 22q51 24 71 44l24 22l90 -128q-9 -12 -48 -42q-28 -20 -58 -36 q-82 -42 -182 -42q-166 0 -271 105q-104 106 -104 266zM472 779h-143v132h143v-132z" />
			<glyph unicode="&#x10b;" horiz-adv-x="551" d="M26 258q0 109 77 189q78 80 210 80q72 0 124.5 -23.5t72.5 -46.5l8 -8l-73 -116q-9 9 -16 14q-14 10 -42 22q-33 14 -63 14q-56 0 -89.5 -35.5t-33.5 -87.5q0 -53 35 -90.5t94 -37.5q60 0 122 46l19 16l63 -121q-15 -15 -36 -30q-74 -54 -185 -55q-132 0 -210 79 q-77 80 -77 191zM365 583h-143v132h143v-132z" />
			<glyph unicode="&#x120;" horiz-adv-x="770" d="M36 359q0 157 106 262q106 106 269 106q104 0 176 -34q58 -24 89 -51l10 -10l-84 -131q-6 6 -23 18t-61 29q-44 19 -90 19q-107 0 -159 -58q-52 -56 -52 -144q0 -99 59 -158q61 -59 146 -59q34 0 71 12.5t57 26.5l17 13v55h-101v149h256v-404h-146v20l1 30h-2 q-6 -6 -23 -18q-14 -10 -63 -27q-51 -17 -102 -17q-144 0 -248 101q-103 100 -103 270zM473 779h-143v132h143v-132z" />
			<glyph unicode="&#x121;" horiz-adv-x="629" d="M79 -164l49 131q64 -33 145 -33q119 0 119 99v17l1 19h-2q-45 -54 -129 -54q-110 0 -171 76t-61 183q0 106 60 179q60 74 171 74q39 0 74.5 -11.5t51.5 -25.5l14 -13h3q-1 4 -1 12v26h162v-468q0 -68 -25 -119t-67.5 -80.5t-92.5 -43.5t-106 -14q-107 0 -195 46zM303 159 q93 0 93 113q0 111 -100 111q-43 0 -67.5 -28t-24.5 -75q0 -54 26 -87.5t73 -33.5zM374 583h-143v132h143v-132z" />
			<glyph unicode="&#x126;" horiz-adv-x="810" d="M284 0h-179v517h-66v107h66v91h179v-91h242v91h179v-91h65v-107h-65v-517h-179v280h-242v-280zM284 517v-88h242v88h-242z" />
			<glyph unicode="&#x127;" d="M237 0h-173v554h-58v95h58v66h173v-66h134v-95h-134v-65l-2 -44h2q22 38 64 60t93 22q185 0 185 -193v-334h-173v302q0 68 -57 68q-78 0 -103 -76q-9 -26 -9 -66v-228z" />
			<glyph unicode="&#x131;" horiz-adv-x="301" d="M237 0h-173v515h173v-515z" />
			<glyph unicode="&#x13f;" horiz-adv-x="563" d="M551 0h-467v715h175v-565h292v-150zM510 315h-158v164h158v-164z" />
			<glyph unicode="&#x140;" horiz-adv-x="461" d="M57 190v525h173v-502q0 -39 9.5 -52.5t38.5 -13.5l21 1v-150q-24 -3 -52 -3q-78 0 -129 32q-61 39 -61 163zM470 315h-158v164h158v-164z" />
			<glyph unicode="&#x152;" horiz-adv-x="992" d="M416 723q28 0 75 -4t57 -4h388v-150h-273v-130h218v-150h-218v-135h288v-150h-403q-10 0 -57 -4t-75 -4q-159 0 -272 107q-112 106 -112 260q0 153 112 258q112 106 272 106zM416 141q46 0 64 5l8 2v419q-27 7 -72 7q-86 0 -144 -63q-59 -62 -59 -152q0 -89 59 -154 q58 -64 144 -64z" />
			<glyph unicode="&#x153;" horiz-adv-x="970" d="M311 527q66 0 111.5 -19.5t87.5 -60.5h2q37 41 80.5 60.5t109.5 19.5q111 0 174 -70q64 -68 64 -179l-4 -54h-324q9 -42 42 -67t77 -25q31 0 66.5 12.5t56.5 26.5l19 13l64 -121l-27 -21q-16 -12 -75 -33q-57 -21 -118 -21q-70 0 -116 21t-85 64h-2q-42 -43 -89 -64 t-113 -21q-121 0 -204 74q-82 75 -82 194t82 195t203 76zM615 323h151q-1 30 -19.5 52t-46.5 22q-67 0 -85 -74zM200 256q0 -55 33.5 -89.5t83.5 -34.5t83.5 34.5t33.5 89.5q0 56 -33.5 91.5t-83.5 35.5t-83.5 -35.5t-33.5 -91.5z" />
			<glyph unicode="&#x160;" horiz-adv-x="580" d="M42 80l-11 10l92 133l25 -21q17 -13 61 -33q46 -20 85 -20q33 0 54 14.5t21 42.5q0 12 -8.5 22.5t-26 20.5t-34.5 17.5t-45 19t-47 20.5q-73 33 -117 80t-44 122q0 96 72 158q73 61 181 61q68 0 125 -21q57 -19 81 -40l24 -20l-74 -143q-3 3 -23 17q-16 12 -56 28 q-41 18 -79 18q-32 0 -54 -14.5t-22 -41.5q0 -22 29 -40.5t84 -39.5q32 -11 57.5 -22.5t55.5 -31t50 -41.5t33.5 -54.5t12.5 -70.5q0 -93 -68 -158q-67 -64 -184 -64q-93 0 -165 36q-66 34 -85 56zM377 761h-168l-99 150h135l47 -82h2l47 82h135z" />
			<glyph unicode="&#x161;" horiz-adv-x="471" d="M47 45l-23 19l74 116l17 -15q16 -10 46 -23q36 -14 68 -14q51 0 51 24q0 17 -85 48q-157 56 -156 170q0 70 60 114q61 43 152 43q63 0 108 -17t66 -36l7 -6l-59 -123l-16 12q-11 7 -42 18q-31 12 -64 12q-51 0 -51 -25q0 -13 85 -44q157 -52 156 -167q0 -70 -58 -116 q-58 -47 -153 -47q-58 0 -109 19q-54 21 -74 38zM319 565h-168l-99 150h135l47 -82h2l47 82h135z" />
			<glyph unicode="&#x178;" horiz-adv-x="639" d="M407 0h-175v293l-236 422h199l81 -172l43 -103h2q15 41 43 103l80 172h199l-236 -422v-293zM488 771h-126v140h126v-140zM279 771h-126v140h126v-140z" />
			<glyph unicode="&#x17b;" horiz-adv-x="638" d="M596 0h-558v110l276 391q26 37 48 59l7 6v2q-22 -3 -55 -3h-263v150h540v-108l-277 -393q-29 -41 -48 -58l-7 -7v-2q23 3 55 3h282v-150zM401 779h-143v132h143v-132z" />
			<glyph unicode="&#x17c;" horiz-adv-x="543" d="M507 0h-473v86l189 237q21 25 39 43l6 4v2q-18 -2 -45 -2h-181v145h460v-87l-188 -237q-18 -23 -40 -42l-6 -5v-2q13 3 46 3h193v-145zM338 583h-143v132h143v-132z" />
			<glyph unicode="&#x17d;" horiz-adv-x="638" d="M596 0h-558v110l276 391q26 37 48 59l7 6v2q-22 -3 -55 -3h-263v150h540v-108l-277 -393q-29 -41 -48 -58l-7 -7v-2q23 3 55 3h282v-150zM413 761h-168l-99 150h135l47 -82h2l47 82h135z" />
			<glyph unicode="&#x17e;" horiz-adv-x="543" d="M507 0h-473v86l189 237q21 25 39 43l6 4v2q-18 -2 -45 -2h-181v145h460v-87l-188 -237q-18 -23 -40 -42l-6 -5v-2q13 3 46 3h193v-145zM350 565h-168l-99 150h135l47 -82h2l47 82h135z" />
			<glyph unicode="&#x192;" horiz-adv-x="593" d="M23 -118v146q50 -7 70 -7q86 0 92 64l19 225h-62v135h74l9 90q10 94 71 141q27 20 60 32q56 19 121 19l88 -8v-146q-56 7 -76 7q-87 0 -93 -64l-7 -71h95v-135h-107l-21 -244q-7 -93 -71 -141q-72 -53 -180 -51z" />
			<glyph unicode="&#x2c6;" horiz-adv-x="486" d="M195 761h-135l99 150h168l99 -150h-135l-47 82h-2z" />
			<glyph unicode="&#x2c7;" horiz-adv-x="486" d="M327 761h-168l-99 150h135l47 -82h2l47 82h135z" />
			<glyph unicode="&#x2d8;" horiz-adv-x="484" d="M68 901v10h117v-11q0 -36 28.5 -51t57 0t28.5 51v11h117v-10q0 -67 -51 -106q-49 -39 -123 -39q-73 0 -124 39q-50 39 -50 106z" />
			<glyph unicode="&#x2d9;" horiz-adv-x="485" d="M314 779h-143v132h143v-132z" />
			<glyph unicode="&#x2da;" horiz-adv-x="485" d="M319 769q-33 -22 -77 -22t-77 22q-32 23 -32 63t32 63q33 23 77 23t77 -23t33 -63t-33 -63zM242 868q-21 2 -30 -17t-0.5 -37.5t30.5 -16.5q22 -2 31 16.5t0 37.5t-31 17z" />
			<glyph unicode="&#x2db;" horiz-adv-x="486" d="M146 -111q0 36 26 71q25 33 52 51l26 17l90 -14q-57 -50 -57 -75q0 -9 9 -15.5t20 -7.5l9 -2l-42 -124q-23 3 -46 10q-83 24 -87 89z" />
			<glyph unicode="&#x2dc;" horiz-adv-x="485" d="M153 761h-112q0 153 128 153q25 0 50 -15t44.5 -30t31.5 -15q37 0 37 57h112q0 -153 -128 -153q-25 0 -50 15t-44.5 30t-31.5 15q-37 0 -37 -57z" />
			<glyph unicode="&#x2dd;" horiz-adv-x="485" d="M351 761h-126l81 150h163zM153 761h-136l76 150h139z" />
			<glyph unicode="&#x2000;" horiz-adv-x="459" />
			<glyph unicode="&#x2001;" horiz-adv-x="918" />
			<glyph unicode="&#x2002;" horiz-adv-x="459" />
			<glyph unicode="&#x2003;" horiz-adv-x="918" />
			<glyph unicode="&#x2004;" horiz-adv-x="306" />
			<glyph unicode="&#x2005;" horiz-adv-x="229" />
			<glyph unicode="&#x2006;" horiz-adv-x="153" />
			<glyph unicode="&#x2007;" horiz-adv-x="153" />
			<glyph unicode="&#x2008;" horiz-adv-x="114" />
			<glyph unicode="&#x2009;" horiz-adv-x="183" />
			<glyph unicode="&#x200a;" horiz-adv-x="51" />
			<glyph unicode="&#x2010;" horiz-adv-x="448" d="M381 212h-314v150h314v-150z" />
			<glyph unicode="&#x2011;" horiz-adv-x="448" d="M381 212h-314v150h314v-150z" />
			<glyph unicode="&#x2012;" horiz-adv-x="448" d="M381 212h-314v150h314v-150z" />
			<glyph unicode="&#x2013;" horiz-adv-x="730" d="M663 222h-596v130h596v-130z" />
			<glyph unicode="&#x2014;" horiz-adv-x="930" d="M863 222h-796v130h796v-130z" />
			<glyph unicode="&#x2018;" horiz-adv-x="259" d="M182 475h-152l89 255h117z" />
			<glyph unicode="&#x2019;" horiz-adv-x="252" d="M152 475h-117l54 255h152z" />
			<glyph unicode="&#x201a;" horiz-adv-x="266" d="M133 -89h-112l54 255h147z" />
			<glyph unicode="&#x201c;" horiz-adv-x="458" d="M381 475h-153l89 255h118zM183 475h-153l89 255h118z" />
			<glyph unicode="&#x201d;" horiz-adv-x="451" d="M351 475h-118l54 255h153zM153 475h-118l54 255h153z" />
			<glyph unicode="&#x201e;" horiz-adv-x="458" d="M325 -89h-112l54 255h147zM133 -89h-112l54 255h147z" />
			<glyph unicode="&#x2020;" horiz-adv-x="490" d="M327 -50h-165v435h-130v130h130v200h165v-200h131v-130h-131v-435z" />
			<glyph unicode="&#x2021;" horiz-adv-x="522" d="M178 150h-130v130h130v105h-130v130h130v200h165v-200h131v-130h-131v-105h131v-130h-131v-200h-165v200z" />
			<glyph unicode="&#x2022;" horiz-adv-x="466" d="M364 159q-54 -54 -131 -54t-132 54q-54 55 -54 132t54 131q55 55 132 55t131 -55q55 -54 55 -131t-55 -132z" />
			<glyph unicode="&#x2026;" horiz-adv-x="922" d="M864 0h-158v164h158v-164zM540 0h-158v164h158v-164zM216 0h-158v164h158v-164z" />
			<glyph unicode="&#x202f;" horiz-adv-x="183" />
			<glyph unicode="&#x2030;" horiz-adv-x="1253" d="M210 382q-76 0 -129 50q-52 49 -52 122q0 71 53 122q52 51 128 51t128 -51q53 -51 53 -122q0 -72 -53 -122t-128 -50zM221 0h-152l552 715h152zM265 555q0 21 -16.5 36.5t-38.5 15.5t-38.5 -15.5t-16.5 -36.5q0 -22 16 -37.5t39 -15.5t39 15.5t16 37.5zM858 160 q0 71 53 122t128 51t128 -51t53 -122q0 -72 -53 -122t-128 -50q-76 0 -129 50q-52 49 -52 122zM456 160q0 71 53 122t128 51t128 -51t53 -122q0 -72 -53 -122t-128 -50q-76 0 -129 50q-52 49 -52 122zM984 161q0 -22 16 -37.5t39 -15.5t39 15.5t16 37.5q0 21 -16.5 36.5 t-38.5 15.5t-38.5 -15.5t-16.5 -36.5zM582 161q0 -22 16 -37.5t39 -15.5t39 15.5t16 37.5q0 21 -16.5 36.5t-38.5 15.5t-38.5 -15.5t-16.5 -36.5z" />
			<glyph unicode="&#x2039;" horiz-adv-x="383" d="M350 77h-158l-164 205l164 206h158l-164 -206z" />
			<glyph unicode="&#x203a;" horiz-adv-x="383" d="M191 77h-158l164 205l-164 206h158l164 -206z" />
			<glyph unicode="&#x2044;" horiz-adv-x="195" d="M325 715l-336 -715h-119l336 715h119z" />
			<glyph unicode="&#x205f;" horiz-adv-x="229" />
			<glyph unicode="&#x20ac;" horiz-adv-x="597" d="M101 237h-74v96h56q-3 23 -1 48h-55v96h72q35 111 129 180q94 70 218 70q55 0 101 -11l16 -3l-43 -158q-37 10 -79 10q-108 0 -154 -88h216l-20 -96h-219q-3 -21 2 -48h207l-20 -96h-155q51 -84 151 -84q46 0 83 11l12 4l30 -160q-57 -20 -128 -20q-127 0 -219 68 q-91 67 -126 181z" />
			<glyph unicode="&#x2122;" horiz-adv-x="967" d="M570 268h-127l35 447h118l73 -175l13 -44h2q9 34 13 44l73 175h118l33 -447h-127l-10 174l1 32h-2l-51 -125h-98l-51 125h-2l1 -32zM284 268h-126v338h-142v109h408v-109h-140v-338z" />
			<glyph unicode="&#x221e;" horiz-adv-x="531" d="M266 554q86 0 145 -60q60 -60 60 -145t-60 -146q-60 -60 -145 -60q-84 0 -146 60q-60 61 -60 146t60 145q62 60 146 60z" />
			<glyph unicode="&#x2248;" horiz-adv-x="630" d="M115 322l-63 99q81 81 165 81q49 0 107 -35q59 -35 91 -35q55 0 102 54l63 -99q-81 -81 -165 -81q-49 0 -108 35q-58 35 -90 35q-53 0 -102 -54zM115 93l-63 99q81 81 165 81q49 0 107 -35q59 -35 91 -35q55 0 102 54l63 -99q-81 -81 -165 -81q-49 0 -108 35 q-58 35 -90 35q-53 0 -102 -54z" />
			<glyph unicode="&#x2260;" horiz-adv-x="630" d="M190 0l-78 47l38 60h-88v130h171l64 100h-235v130h319l69 108l76 -49l-38 -59h80v-130h-163l-64 -100h227v-130h-310z" />
			<glyph unicode="&#x2264;" horiz-adv-x="630" d="M563 11l-504 223v107l504 223v-145l-330 -131v-2l330 -130v-145zM62 -200v130h501v-130h-501z" />
			<glyph unicode="&#x2265;" horiz-adv-x="630" d="M571 234l-504 -223v145l330 130v2l-330 131v145l504 -223v-107zM68 -200v130h501v-130h-501z" />
			<glyph unicode="&#x25fc;" horiz-adv-x="515" d="M0 515h515v-515h-515v515z" />
			</font>
</defs>
</svg>
